.
Авторизация | Регистрация
Хочешь лучшие торренты? Добавь свой email!
Добавить

Торрент скачать бесплатно

  • support: webmaster@btracker.org
» » Александр Невский (1938) WEB-DL [H.264] [MP4|1480x1080] торрент скачать бесплатно


    Александр Невский (1938) WEB-DL [H.264] [MP4|1480x1080] торрент скачать бесплатно

    Опубликовал: Админ | Дата: 25-03-2018, 05:00 | .torrent скачали: 0

    Александр Невский (1938) WEB-DL [H.264] [MP4|1480x1080]Производство: СССР
    Жанр: Драма, военный, история, биография
    Режиссер: Сергей Эйзенштейн, Дмитрий Васильев, Борис Иванов
    Актеры: Николай Черкасов, Николай Охлопков, Андрей Абрикосов, Дмитрий Орлов, Николай Арский, Варвара Массалитинова, Валентина Ивашева, Александра Данилова, Владимир Ершов, Сергей Блинников

    Описание

    На западные рубежи Руси наступают войска Тевтонского Ордена. Они захватывают Псков, мучают и убивают местных жителей. Рыцари заранее делят ещё не завоеванные русские земли, присваивая себе титулы князей и надеясь на поддержку Папы Римского. Новгородский люд на вече решает собирать дружину и звать на командование ей опытного полководца князя Александра, прозванного Невским. Двое богатырей — Гаврила Алексич и Васька Буслаев (реальные личности) — сватаются к одной девице, и она решает, что выберет того, кто лучше покажет себя в битве...

    Возраст: 6+ (зрителям, достигшим 6 лет)
    Релиз от: Алехаndr
    Продолжительность: 01: 43: 24
    Качество видео: WEB-DL
    Субтитры: Отсутствуют
    Видео: AVC/H.264, 1480x1080, ~1960 Kbps
    Аудио: AAC, 2 ch, 126 Kbps

    Общее
    Полное имя : G: Александр Невский (1938).by.Алехаndr.mp4
    Формат : MPEG-4
    Профиль формата : Base Media
    Идентификатор кодека : isom (isom/iso2/avc1/mp41)
    Размер файла : 1, 51 Гбайт
    Продолжительность : 1 ч. 43 м.
    Общий поток : 2094 Кбит/сек
    Программа кодирования : Lavf56.40.101
    Видео
    Идентификатор : 1
    Формат : AVC
    Формат/Информация : Advanced Video Codec
    Профиль формата : High@L4
    Настройки формата : CABAC/3 Ref Frames
    Параметр CABAC формата : Да
    Параметр RefFrames формата : 3 кадра
    Идентификатор кодека : avc1
    Идентификатор кодека/Информация : Advanced Video Coding
    Продолжительность : 1 ч. 43 м.
    Duration_FirstFrame : -40 мс.
    Битрейт : 1962 Кбит/сек
    Ширина : 1480 пикселей
    Высота : 1080 пикселей
    Соотношение сторон : 1, 370
    Режим частоты кадров : Переменный
    Частота кадров : 25, 000 кадров/сек
    Минимальная частота кадров : 25, 000 кадров/сек
    Максимальная частота кадров : 25, 014 кадров/сек
    Цветовое пространство : YUV
    Субдискретизация насыщенности : 4: 2: 0
    Битовая глубина : 8 бит
    Тип развёртки : Прогрессивная
    Бит/(Пиксели*Кадры) : 0.049
    Размер потока : 1, 42 Гбайт (94%)
    Цветовой диапазон : Limited
    Основные цвета : BT.709
    Характеристики трансфера : BT.709
    Коэффициенты матрицы : BT.709
    Аудио
    Идентификатор : 2
    Формат : AAC
    Формат/Информация : Advanced Audio Codec
    Профиль формата : LC
    Идентификатор кодека : mp4a-40-2
    Продолжительность : 1 ч. 43 м.
    Вид битрейта : Постоянный
    Битрейт : 126 Кбит/сек
    Каналы : 2 канала
    Расположение каналов : Front: L R
    Частота : 44, 1 КГц
    Частота кадров : 43, 066 кадра/сек (1024 SPF)
    Метод сжатия : С потерями
    Размер потока : 92, 9 Мбайт (6%)
    Default : Да
    AlternateGroup/String : 1
    Скриншоты:


    Все одноименные релизы в Клубе
    Время раздачи: 24/7 (круглосуточно) (до появления первых 3-5 скачавших)


    Александр Невский (1938) WEB-DL [H.264] [MP4|1480x1080]
    Рейтинг →
     (голосов: 1, оценка 3/5, голосовать можно 1 раз )

    Другие торренты по теме:

  • Александр Невский (1938) DVDRip [H.264] [hand made colored] скачать через торрент бесплатно
  • Василий Ян | Александр Невский. Юность полководца (2016) [MP3]
  • Александр Невский | Сбрось лишнее! Революционный подход к обретению стройности (2010) [DJVU]
  • Александр Невский (1938) WEB-DLRip [H.264]
  • Александр Невский (1938) WEB-DL [H.264 / 720p]
  • Александр Невский. Между Востоком и Западом (2016) HDTVRip [H264 / 720p-LQ]
  • А.А. Маркова (сост.) | Святой благоверный великий князь Александр Невский (2017) [PDF, DJVU]
  • Александр Модестов | Развенчанные мифы о Жукове. Невский пятачок (2012) [PDF]


    • Комментарии (0):

      Информация

      Информация

        Посетители, находящиеся в группе Гости, не могут оставлять комментарии в данной новости.

        ↓ Меню




        ↓ Опрос

        Вы добавили сайт в закладки?
        Да
        Нет


        Top 10 за месяц (КПК и мобильные)