.
Авторизация | Регистрация
Хочешь лучшие торренты? Добавь свой email!
Добавить

Торрент скачать бесплатно

» » Люди Икс: Первый класс / X: First Class (2011) HDRip [H.264] [MP4|1280x544] торрент скачать бесплатно


    Люди Икс: Первый класс / X: First Class (2011) HDRip [H.264] [MP4|1280x544] торрент скачать бесплатно

    Опубликовал: Админ | Дата: 24-03-2018, 05:00 | .torrent скачали: 0

    Люди Икс: Первый класс / X: First Class (2011) HDRip [H.264] [MP4|1280x544]Производство: США, Великобритания
    Жанр: Фантастика, Боевик, Приключения
    Режиссер: Мэттью Вон
    Продюсер: Грегори Гудман, Саймон Кинберг, Лорен Шулер Доннер
    Актеры: Джеймс МакЭвой, Майкл Фассбендер, Кевин Бейкон, Роуз Бирн, Николас Холт, Лукас Тилл, Дженнифер Лоуренс, Калеб Лэндри Джонс, Зои Кравиц, Дженьюэри Джонс

    Описание

    Фильм расскажет о том, как сформировались профессор Ксавьер и Магнито, о процессе основания школы профессора для детей-мутантов и, наконец, о том, что же произошло между двумя закадычными друзьями и почему они расстались.

    Возраст: 12+ (зрителям, достигшим 12 лет)
    Рейтинг MPAA: PG-13 (детям до 13 лет просмотр нежелателен)
    Дата мировой премьеры: 25 мая 2011
    Дата российской премьеры: 2 июня 2011
    Продолжительность: 02: 11: 43
    Качество видео: HDRip
    Перевод: Дублированный (Лицензия)
    Субтитры: Русские (форсированные, полные), Английские (форсированные, полные)
    Видео: AVC/H.264, 1280x544, ~1233 Kbps
    Аудио: AAC, 2 ch, ~128 Kbps

    Общее
    Полное имя : E: Download1Люди Икс Первый класс 2011 720p.mp4
    Формат : MPEG-4
    Профиль формата : Base Media
    Идентификатор кодека : isom (isom/avc1)
    Размер файла : 1, 26 Гбайт
    Продолжительность : 2 ч. 11 м.
    Режим общего битрейта : Переменный
    Общий поток : 1364 Кбит/сек
    Дата кодирования : UTC 2018-03-18 12: 08: 00
    Дата пометки : UTC 2018-03-18 12: 08: 00
    Видео
    Идентификатор : 1
    Формат : AVC
    Формат/Информация : Advanced Video Codec
    Профиль формата : High@L3.1
    Настройки формата : CABAC/1 Ref Frames
    Параметр CABAC формата : Да
    Параметр RefFrames формата : 1 кадр
    Идентификатор кодека : avc1
    Идентификатор кодека/Информация : Advanced Video Coding
    Продолжительность : 2 ч. 11 м.
    Битрейт : 1233 Кбит/сек
    Максимальный битрейт : 6334 Кбит/сек
    Ширина : 1280 пикселей
    Высота : 544 пикселя
    Соотношение сторон : 2, 35: 1
    Режим частоты кадров : Постоянный
    Частота кадров : 23, 976 (24000/1001) кадра/сек
    Цветовое пространство : YUV
    Субдискретизация насыщенности : 4: 2: 0
    Битовая глубина : 8 бит
    Тип развёртки : Прогрессивная
    Бит/(Пиксели*Кадры) : 0.074
    Размер потока : 1, 13 Гбайт (90%)
    Дата кодирования : UTC 2018-03-18 12: 08: 00
    Дата пометки : UTC 2018-03-18 12: 09: 17
    Цветовой диапазон : Limited
    Основные цвета : BT.709
    Характеристики трансфера : BT.709
    Коэффициенты матрицы : BT.709
    Аудио
    Идентификатор : 2
    Формат : AAC
    Формат/Информация : Advanced Audio Codec
    Профиль формата : LC
    Идентификатор кодека : mp4a-40-2
    Продолжительность : 2 ч. 11 м.
    Вид битрейта : Переменный
    Битрейт : 128 Кбит/сек
    Максимальный битрейт : 134 Кбит/сек
    Каналы : 2 канала
    Расположение каналов : Front: L R
    Частота : 48, 0 КГц
    Частота кадров : 46, 875 кадров/сек (1024 SPF)
    Метод сжатия : С потерями
    Размер потока : 121 Мбайт (9%)
    Заголовок : Дублированный (Лицензия)
    Язык : Russian
    Дата кодирования : UTC 2018-03-18 12: 08: 54
    Дата пометки : UTC 2018-03-18 12: 09: 17
    Текст #1
    Идентификатор : 3
    Формат : Timed Text
    Идентификатор кодека : tx3g
    Продолжительность : 1 ч. 33 м.
    Вид битрейта : Переменный
    Битрейт : 7 бит/сек
    Размер потока : 5, 08 Кбайт (0%)
    Заголовок : Forced
    Язык : Russian
    Forced : Нет
    Дата кодирования : UTC 2018-03-18 12: 09: 16
    Дата пометки : UTC 2018-03-18 12: 09: 17
    Текст #2
    Идентификатор : 4
    Формат : Timed Text
    Идентификатор кодека : tx3g
    Продолжительность : 2 ч. 4 м.
    Вид битрейта : Переменный
    Битрейт : 80 бит/сек
    Размер потока : 72, 6 Кбайт (0%)
    Заголовок : Full
    Язык : Russian
    Forced : Нет
    Дата кодирования : UTC 2018-03-18 12: 09: 16
    Дата пометки : UTC 2018-03-18 12: 09: 17
    Текст #3
    Идентификатор : 5
    Формат : Timed Text
    Идентификатор кодека : tx3g
    Продолжительность : 2 ч. 11 м.
    Вид битрейта : Переменный
    Битрейт : 5 бит/сек
    Размер потока : 4, 34 Кбайт (0%)
    Заголовок : Forced
    Язык : English
    Forced : Нет
    Дата кодирования : UTC 2018-03-18 12: 09: 17
    Дата пометки : UTC 2018-03-18 12: 09: 17
    Текст #4
    Идентификатор : 6
    Формат : Timed Text
    Идентификатор кодека : tx3g
    Продолжительность : 2 ч. 4 м.
    Вид битрейта : Переменный
    Битрейт : 57 бит/сек
    Размер потока : 52, 0 Кбайт (0%)
    Заголовок : Full
    Язык : English
    Forced : Нет
    Дата кодирования : UTC 2018-03-18 12: 09: 17
    Дата пометки : UTC 2018-03-18 12: 09: 17
    Скриншоты:


    Все одноименные релизы в Клубе
    Время раздачи: с 9: 00 до 21: 00 (до появления первых 3-5 скачавших)


    Люди Икс: Первый класс/X: First Class (2011) HDRip [H.264] [MP4|1280x544]
    Рейтинг →
     (голосов: 1, оценка 4/5, голосовать можно 1 раз )

    Другие торренты по теме:

  • Henry Jackman & VA - Люди Икс Первый класс / X-Men: First Class (Complete Score + Unofficial) (2011)
  • Люди Икс: Первый класс / X-Men: First Class (2011) HDRip [H.264] [Hand Made Extended Cut]
  • Люди Икс: Первый класс / X-Men: First Class (2011) UHD BDRemux [H.265 / 2160p] [4K, HDR, 10-bit]
  • Люди Икс: Первый класс / X: First Class (2011) HDRip [H.264] [MP4|1920x816]


    • Комментарии (0):

      Информация

      Информация

        Посетители, находящиеся в группе Гости, не могут оставлять комментарии в данной новости.

        ↓ Меню




        ↓ Опрос

        Вы добавили сайт в закладки?
        Да
        Нет


        Top 10 за месяц (КПК и мобильные)