.
Авторизация | Регистрация
Хочешь лучшие торренты? Добавь свой email!
Добавить

Торрент скачать бесплатно

» » Люди Икс: Начало. Росомаха / X-Men Origins: Wolverine (2009) HDRip [H.264] [MP4|1920x818] торрент скачать бесплатно

    Люди Икс: Начало. Росомаха / X-Men Origins: Wolverine (2009) HDRip [H.264] [MP4|1920x818] торрент скачать бесплатно

    Опубликовал: Админ | Дата: 23-03-2018, 05:00 | .torrent скачали: 0

    Люди Икс: Начало. Росомаха / X-Men Origins: Wolverine (2009) HDRip [H.264] [MP4|1920x818]Производство: США, Великобритания
    Жанр: Фантастика, Боевик, Триллер, Приключения
    Режиссер: Гэвин Худ
    Продюсер: Хью Джекман, Джон Палермо, Лорен Шулер Доннер
    Актеры: Хью Джекман, Лив Шрайбер, Дэнни Хьюстон, Уилл Ай Эм, Линн Коллинс, Кевин Дюран, Доминик Монахэн, Тейлор Китч, Дэниэл Хэнни, Райан Рейнольдс, Тим Пакок, Джулия Блейк, Макс Каллен, Аарон Джеффри, Майкл-Джеймс Олсен, Питер О’Брайэн, Трой Сиван, Элис Паркинсон, Филип А. Паттерсон, Стефен Андертон

    Описание

    Фильм рассказывает о неистовом и романтичном прошлом Росомахи, его сложных отношениях с Виктором Кридом и о зловещей программе Оружие Х. При этом Росомаха встречается со многими мутантами, уже знакомыми и новыми, и узнает несколько легенд о мире Людей Икс.

    Возраст: 12+ (зрителям, достигшим 12 лет)
    Рейтинг MPAA: PG-13 (детям до 13 лет просмотр нежелателен)
    Дата мировой премьеры: 8 апреля 2009
    Дата российской премьеры: 29 апреля 2009
    Продолжительность: 01: 47: 24
    Качество видео: HDRip
    Перевод: Дублированный (Лицензия)
    Субтитры: Русские (форсированные, полные), Английские (полные)
    Видео: AVC/H.264, 1920x818, ~2045 Kbps
    Аудио: AC3, 6 ch, 384 Kbps

    Общее
    Полное имя : E: Download1Люди Икс Начало. Росомаха 2009 1080p.mp4
    Формат : MPEG-4
    Профиль формата : Base Media
    Идентификатор кодека : isom (isom/avc1/iso6)
    Размер файла : 1, 82 Гбайт
    Продолжительность : 1 ч. 47 м.
    Режим общего битрейта : Переменный
    Общий поток : 2431 Кбит/сек
    Дата кодирования : UTC 2018-03-18 08: 01: 07
    Дата пометки : UTC 2018-03-18 08: 01: 07
    Видео
    Идентификатор : 1
    Формат : AVC
    Формат/Информация : Advanced Video Codec
    Профиль формата : High@L4
    Настройки формата : CABAC/2 Ref Frames
    Параметр CABAC формата : Да
    Параметр RefFrames формата : 2 кадра
    Идентификатор кодека : avc1
    Идентификатор кодека/Информация : Advanced Video Coding
    Продолжительность : 1 ч. 47 м.
    Битрейт : 2045 Кбит/сек
    Максимальный битрейт : 9032 Кбит/сек
    Ширина : 1920 пикселей
    Высота : 818 пикселей
    Соотношение сторон : 2, 35: 1
    Режим частоты кадров : Постоянный
    Частота кадров : 23, 976 (24000/1001) кадра/сек
    Цветовое пространство : YUV
    Субдискретизация насыщенности : 4: 2: 0
    Битовая глубина : 8 бит
    Тип развёртки : Прогрессивная
    Бит/(Пиксели*Кадры) : 0.054
    Размер потока : 1, 53 Гбайт (84%)
    Дата кодирования : UTC 2018-03-18 08: 01: 07
    Дата пометки : UTC 2018-03-18 08: 03: 20
    Цветовой диапазон : Limited
    Основные цвета : BT.709
    Характеристики трансфера : BT.709
    Коэффициенты матрицы : BT.709
    Аудио
    Идентификатор : 2
    Формат : AC-3
    Формат/Информация : Audio Coding 3
    Параметр Endianness формата : Big
    Идентификатор кодека : ac-3
    Продолжительность : 1 ч. 47 м.
    Вид битрейта : Постоянный
    Битрейт : 384 Кбит/сек
    Максимальный битрейт : 406 Кбит/сек
    Каналы : 2 канала
    Расположение каналов : Front: L R
    Частота : 48, 0 КГц
    Частота кадров : 31, 250 кадров/сек (1536 SPF)
    Битовая глубина : 16 бит
    Метод сжатия : С потерями
    Размер потока : 295 Мбайт (16%)
    Заголовок : Дублированный (Лицензия)
    Язык : Russian
    ServiceKind/String : Complete Main
    Дата кодирования : UTC 2018-03-18 08: 02: 57
    Дата пометки : UTC 2018-03-18 08: 03: 20
    Текст #1
    Идентификатор : 3
    Формат : Timed Text
    Идентификатор кодека : tx3g
    Продолжительность : 1 ч. 6 м.
    Вид битрейта : Переменный
    Битрейт : 0 бит/сек
    Размер потока : 217 байт (0%)
    Заголовок : Forced
    Язык : Russian
    Forced : Нет
    Дата кодирования : UTC 2018-03-18 08: 03: 20
    Дата пометки : UTC 2018-03-18 08: 03: 20
    Текст #2
    Идентификатор : 4
    Формат : Timed Text
    Идентификатор кодека : tx3g
    Продолжительность : 1 ч. 41 м.
    Вид битрейта : Переменный
    Битрейт : 56 бит/сек
    Размер потока : 41, 4 Кбайт (0%)
    Заголовок : Full
    Язык : Russian
    Forced : Нет
    Дата кодирования : UTC 2018-03-18 08: 03: 20
    Дата пометки : UTC 2018-03-18 08: 03: 20
    Текст #3
    Идентификатор : 5
    Формат : Timed Text
    Идентификатор кодека : tx3g
    Продолжительность : 1 ч. 41 м.
    Вид битрейта : Переменный
    Битрейт : 42 бит/сек
    Размер потока : 31, 0 Кбайт (0%)
    Заголовок : Full
    Язык : English
    Forced : Нет
    Дата кодирования : UTC 2018-03-18 08: 03: 20
    Дата пометки : UTC 2018-03-18 08: 03: 20
    Скриншоты:


    Все одноименные релизы в Клубе
    Время раздачи: с 9: 00 до 21: 00 (до появления первых 3-5 скачавших)

    Прямая ссылка скачивания через uTorrent


    Люди Икс: Начало. Росомаха/X-Men Origins: Wolverine (2009) HDRip [H.264] [MP4|1920x818]
    Рейтинг →
     (голосов: 1, оценка 5/5, голосовать можно 1 раз )

    Другие торренты по теме:

  • Люди Икс: Начало. Росомаха / X-Men Origins: Wolverine (2009) BDRip [H.264 / 1080p]
  • Люди Икс: Начало. Росомаха / X-Men Origins: Wolverine (2009) BDRip [H.264 / 720p]
  • Люди Икс: Начало. Росомаха / X-Men Origins: Wolverine (2009) HDRip [H.264] [Hand Made Extended Cut]
  • Люди Икс: Начало. Росомаха / X-Men Origins: Wolverine (2009) HDRip [H.264] [MP4|1280x546]


    • Комментарии (0):

      Информация

      Информация

        Посетители, находящиеся в группе Гости, не могут оставлять комментарии в данной новости.

        ↓ Меню




        ↓ Опрос

        Вы добавили сайт в закладки?
        Да
        Нет


        Top 10 за месяц (КПК и мобильные)