.
Авторизация | Регистрация
Хочешь лучшие торренты? Добавь свой email!
Добавить

Торрент скачать бесплатно

» » Люди Икс: Последняя битва / X-Men: The Last Stand (2006) HDRip [H.264] [MP4|1280x534] торрент скачать бесплатно


    Люди Икс: Последняя битва / X-Men: The Last Stand (2006) HDRip [H.264] [MP4|1280x534] торрент скачать бесплатно

    Опубликовал: Админ | Дата: 22-03-2018, 05:00 | .torrent скачали: 1

    Люди Икс: Последняя битва / X-Men: The Last Stand (2006) HDRip [H.264] [MP4|1280x534]Производство: Канада, США, Великобритания
    Жанр: Фантастика, Фэнтези, Боевик, Триллер
    Режиссер: Бретт Рэтнер
    Продюсер: Ави Арад, Лорен Шулер Доннер, Ральф Уинтер
    Актеры: Хью Джекман, Холли Берри, Иэн МакКеллен, Фамке Янссен, Келси Грэммер, Шон Эшмор, Аарон Стэнфорд, Патрик Стюарт, Бен Фостер, Эллен Пейдж

    Описание

    Людям Икс, во главе с профессором Чарльзом Ксавьером, приходится вступить в битву с самой эволюцией в лице их воскресшего товарища по команде… Джин Грэй, возрожденная в облике Темного Феникса, представляет опасность не только для самой себя, но и для мутантов и для всей человеческой расы.
    А когда наконец найдено возможное лекарство — то, что может предотвратить генетические мутации — наступает время решающей битвы между Людьми Икс, Братством Магнето и человечеством.

    Возраст: 12+ (зрителям, достигшим 12 лет)
    Рейтинг MPAA: PG-13 (детям до 13 лет просмотр нежелателен)
    Дата мировой премьеры: 22 мая 2006
    Дата российской премьеры: 25 мая 2006
    Продолжительность: 01: 44: 05
    Качество видео: HDRip
    Перевод: Дублированный (Лицензия)
    Субтитры: Русские (форсированные, полные), Английские (полные)
    Видео: AVC/H.264, 1280x534, ~1387 Kbps
    Аудио: AAC, 2 ch, ~128 Kbps

    Общее
    Полное имя : E: Download1Люди Икс Последняя битва 2006 720p.mp4
    Формат : MPEG-4
    Профиль формата : Base Media
    Идентификатор кодека : isom (isom/avc1)
    Размер файла : 1, 10 Гбайт
    Продолжительность : 1 ч. 44 м.
    Режим общего битрейта : Переменный
    Общий поток : 1518 Кбит/сек
    Дата кодирования : UTC 2018-03-18 10: 12: 39
    Дата пометки : UTC 2018-03-18 10: 12: 39
    Видео
    Идентификатор : 1
    Формат : AVC
    Формат/Информация : Advanced Video Codec
    Профиль формата : High@L3.1
    Настройки формата : CABAC/1 Ref Frames
    Параметр CABAC формата : Да
    Параметр RefFrames формата : 1 кадр
    Идентификатор кодека : avc1
    Идентификатор кодека/Информация : Advanced Video Coding
    Продолжительность : 1 ч. 44 м.
    Битрейт : 1387 Кбит/сек
    Максимальный битрейт : 6263 Кбит/сек
    Ширина : 1280 пикселей
    Высота : 534 пикселя
    Соотношение сторон : 2, 40: 1
    Режим частоты кадров : Постоянный
    Частота кадров : 23, 976 (24000/1001) кадра/сек
    Цветовое пространство : YUV
    Субдискретизация насыщенности : 4: 2: 0
    Битовая глубина : 8 бит
    Тип развёртки : Прогрессивная
    Бит/(Пиксели*Кадры) : 0.085
    Размер потока : 1, 01 Гбайт (91%)
    Дата кодирования : UTC 2018-03-18 10: 12: 39
    Дата пометки : UTC 2018-03-18 10: 14: 10
    Цветовой диапазон : Limited
    Основные цвета : BT.709
    Характеристики трансфера : BT.709
    Коэффициенты матрицы : BT.709
    Аудио
    Идентификатор : 2
    Формат : AAC
    Формат/Информация : Advanced Audio Codec
    Профиль формата : LC
    Идентификатор кодека : mp4a-40-2
    Продолжительность : 1 ч. 44 м.
    Вид битрейта : Переменный
    Битрейт : 128 Кбит/сек
    Максимальный битрейт : 136 Кбит/сек
    Каналы : 2 канала
    Расположение каналов : Front: L R
    Частота : 48, 0 КГц
    Частота кадров : 46, 875 кадров/сек (1024 SPF)
    Метод сжатия : С потерями
    Размер потока : 95, 6 Мбайт (8%)
    Заголовок : Дублированный (Лицензия)
    Язык : Russian
    Дата кодирования : UTC 2018-03-18 10: 13: 58
    Дата пометки : UTC 2018-03-18 10: 14: 10
    Текст #1
    Идентификатор : 3
    Формат : Timed Text
    Идентификатор кодека : tx3g
    Продолжительность : 11 м. 56 с.
    Вид битрейта : Переменный
    Битрейт : 1 бит/сек
    Размер потока : 125 байт (0%)
    Заголовок : Forced
    Язык : Russian
    Forced : Нет
    Дата кодирования : UTC 2018-03-18 10: 14: 10
    Дата пометки : UTC 2018-03-18 10: 14: 10
    Текст #2
    Идентификатор : 4
    Формат : Timed Text
    Идентификатор кодека : tx3g
    Продолжительность : 1 ч. 43 м.
    Вид битрейта : Переменный
    Битрейт : 62 бит/сек
    Размер потока : 47, 0 Кбайт (0%)
    Заголовок : Full
    Язык : Russian
    Forced : Нет
    Дата кодирования : UTC 2018-03-18 10: 14: 10
    Дата пометки : UTC 2018-03-18 10: 14: 10
    Текст #3
    Идентификатор : 5
    Формат : Timed Text
    Идентификатор кодека : tx3g
    Продолжительность : 1 ч. 44 м.
    Вид битрейта : Переменный
    Битрейт : 40 бит/сек
    Размер потока : 30, 8 Кбайт (0%)
    Заголовок : Full
    Язык : English
    Forced : Нет
    Дата кодирования : UTC 2018-03-18 10: 14: 10
    Дата пометки : UTC 2018-03-18 10: 14: 10
    Скриншоты:


    Все одноименные релизы в Клубе
    Время раздачи: с 9: 00 до 21: 00 (до появления первых 3-5 скачавших)


    Люди Икс: Последняя битва/X-Men: The Last Stand (2006) HDRip [H.264] [MP4|1280x534]
    Рейтинг →
     (голосов: 1, оценка 5/5, голосовать можно 1 раз )

    Другие торренты по теме:

  • Люди Икс: Последняя битва / X-Men: The Last Stand (2006) HDRip [H.264] [Hand Made Extended Cut]
  • Люди Икс: Последняя битва / X-Men: The Last Stand (2006) HDRip [H.264] [MP4|1920x800]


    • Комментарии (0):

      Информация

      Информация

        Посетители, находящиеся в группе Гости, не могут оставлять комментарии в данной новости.

        ↓ Меню




        ↓ Опрос

        Вы добавили сайт в закладки?
        Да
        Нет


        Top 10 за месяц (КПК и мобильные)