.
Авторизация | Регистрация
Хочешь лучшие торренты? Добавь свой email!
Добавить

Торрент скачать бесплатно

» » Стань легендой! Бигфут Младший / The Son of Bigfoot (2017) BDRip [H.264] [MP4|1280x536] торрент скачать бесплатно

    Стань легендой! Бигфут Младший / The Son of Bigfoot (2017) BDRip [H.264] [MP4|1280x536] торрент скачать бесплатно

    Опубликовал: Админ | Дата: 21-03-2018, 05:00 | .torrent скачали: 0

    Стань легендой! Бигфут Младший / The Son of Bigfoot (2017) BDRip [H.264] [MP4|1280x536]Производство: Франция, Бельгия/nWave Pictures, StudioCanal, Belga Productions
    Жанр: семейный, комедия, мультфильм
    Режиссер: Жереми Дегрусон, Бен Стассен
    Персонажи: Синда Адамс, Джордж Бэббит, Лайла Берзиньш, Джои Камен, Джефф Дусетте, Дэвид Эпштейн, Паппи Фолкнер, Сэнди Фокс, Кайл Хеберт, Мариев Херингтон ...

    Описание

    Обычный подросток по имени Адам отправляется на поиски своего давно пропавшего отца и попадает в приключение мифических масштабов. Его мир переворачивается вверх дном, когда оказывается, что в нем течет кровь последних легендарных хранителей леса — бигфутов. Теперь ему открыты такие способности как суперскорость, живительное прикосновение и возможность понимать язык животных.

    Возраст: 6+ (зрителям, достигшим 6 лет)
    Дата мировой премьеры: 26 июля 2017, ...
    Дата российской премьеры: 27 июля 2017, Вольга
    Дата выхода DVD/Blu-ray релиза: 18 декабря 2017, НД Плэй, ...
    Продолжительность: 01: 32: 14
    Качество видео: BDRip
    Перевод: Дублированный (Лицензия BD RUS)
    Видео: AVC/H.264, 1280x536, ~3275 Kbps
    Аудио: AAC, 2 ch, 192 kbps - русский

    Полное имя : D: i7-3820The.Son.of.Bigfoot.2017.BDRip720p.x264.nnm-club.mp4
    Формат : MPEG-4
    Профиль формата : Base Media
    Идентификатор кодека : isom (isom/iso2/avc1/mp41)
    Размер файла : 2, 21 Гбайт
    Продолжительность : 1 ч. 32 м.
    Общий поток : 3419 Кбит/сек
    Программа кодирования : XviD4PSP 7.0.129
    Видео
    Идентификатор : 1
    Формат : AVC
    Формат/Информация : Advanced Video Codec
    Профиль формата : High@L4.1
    Параметр CABAC формата : Да
    Параметр ReFrames формата : 4 кадра
    Идентификатор кодека : avc1
    Идентификатор кодека/Информация : Advanced Video Coding
    Продолжительность : 1 ч. 32 м.
    Битрейт : 3275 Кбит/сек
    Ширина : 1280 пикселей
    Высота : 536 пикселей
    Соотношение сторон : 2, 40: 1
    Режим частоты кадров : Постоянный
    Частота кадров : 24, 000 кадра/сек
    Цветовое пространство : YUV
    Субдискретизация насыщенности : 4: 2: 0
    Битовая глубина : 8 бит
    Тип развёртки : Прогрессивная
    Бит/(Пиксели*Кадры) : 0.202
    Размер потока : 2, 08 Гбайт (94%)
    Библиотека кодирования : x264 core 146 r2538M 121396c
    Настройки программы : cabac=1/ref=5/deblock=1: -1: -1/analyse=0x3: 0x133/me=umh/subme=8/psy=1/psy_rd=1, 00: 0, 15/mixed_ref=1/me_range=24/chroma_me=1/trellis=1/8x8dct=1/cqm=0/deadzone=21, 11/fast_pskip=1/chroma_qp_offset=-3/threads=24/lookahead_threads=4/sliced_threads=0/nr=0/decimate=1/interlaced=0/bluray_compat=0/constrained_intra=0/bframes=5/b_pyramid=1/b_adapt=2/b_bias=0/direct=3/weightb=1/open_gop=0/weightp=2/keyint=240/keyint_min=24/scenecut=40/intra_refresh=0/rc_lookahead=240/rc=2pass/mbtree=1/bitrate=3275/ratetol=1, 0/qcomp=0, 60/qpmin=10/qpmax=51/qpstep=4/cplxblur=20, 0/qblur=0, 5/ip_ratio=1, 40/aq=1: 1, 00
    Язык : English
    Menus : 0
    Аудио
    Идентификатор : 2
    Формат : AAC
    Формат/Информация : Advanced Audio Codec
    Профиль формата : LC
    Идентификатор кодека : 40
    Продолжительность : 1 ч. 31 м.
    Вид битрейта : Постоянный
    Битрейт : 192 Кбит/сек
    Каналы : 2 канала
    Расположение каналов : Front: L R
    Частота : 48, 0 КГц
    Частота кадров : 46, 875 кадров/сек
    Метод сжатия : С потерями
    Размер потока : 125 Мбайт (6%)
    Заголовок : DUB-BD RUS/DUB-BD RUS
    Язык : Russian
    Default : Да
    Alternate group : 1
    Menus : 0
    Меню
    00: 00: 00.000 : 00: 00: 00.000
    00: 00: 25.708 : 00: 00: 25.708
    00: 09: 52.250 : 00: 09: 52.250
    00: 20: 05.625 : 00: 20: 05.625
    00: 31: 35.750 : 00: 31: 35.750
    00: 42: 31.458 : 00: 42: 31.458
    00: 55: 00.167 : 00: 55: 00.167
    01: 03: 24.042 : 01: 03: 24.042
    01: 16: 09.833 : 01: 16: 09.833
    Скриншоты:



    Мультфильм Стань легендой! Бигфут Младший/The Son of Bigfoot на NNM-CLUB
    Время раздачи: 24/7 (до появления первых 3-5 скачавших)

    Прямая ссылка скачивания через uTorrent


    Стань легендой! Бигфут Младший/The Son of Bigfoot (2017) BDRip [H.264] [MP4|1280x536]
    Рейтинг →
     (голосов: 1, оценка 4/5, голосовать можно 1 раз )

    Другие торренты по теме:

  • Стань легендой! Бигфут Младший / The Son of Bigfoot (2017) BDRip
  • Стань легендой! Бигфут Младший / The Son of Bigfoot (2017) BDRip 3D [H.264 / 1080p] [Вертикальная анаморфная стереопара]
  • Стань легендой! Бигфут Младший / The Son of Bigfoot (2017) BDRip [H.264 / 1080p]
  • Стань легендой! Бигфут Младший / The Son of Bigfoot (2017) Blu-Ray [H.264 / 1080p]
  • Стань легендой! Бигфут Младший / The Son of Bigfoot (2017) BDRip [H.264]
  • Стань легендой! Бигфут Младший / The Son of Bigfoot (2017) BDRip [H.264]
  • Стань легендой! Бигфут Младший / The Son of Bigfoot (2017) BDRemux [H.264 / 1080p]
  • Стань легендой! Бигфут Младший / The Son of Bigfoot (2017) BDRip [H.264]


    • Комментарии (0):

      Информация

      Информация

        Посетители, находящиеся в группе Гости, не могут оставлять комментарии в данной новости.

        ↓ Меню




        ↓ Опрос

        Вы добавили сайт в закладки?
        Да
        Нет


        Top 10 за месяц (КПК и мобильные)