.
Авторизация | Регистрация
Хочешь лучшие торренты? Добавь свой email!
Добавить

Торрент скачать бесплатно

» » Дозор джунглей / Les as de la jungle (2017) BDRip [H.264] [MP4|1280x536] торрент скачать бесплатно


    Дозор джунглей / Les as de la jungle (2017) BDRip [H.264] [MP4|1280x536] торрент скачать бесплатно

    Опубликовал: Админ | Дата: 21-03-2018, 05:00 | .torrent скачали: 0

    Дозор джунглей / Les as de la jungle (2017) BDRip [H.264] [MP4|1280x536]Производство: Франция, TAT Productions, Master Films, Vanilla Seed, France Televisions, Centre National de la Cinematographie (CNC), Region Midi-Pyrenees, Procirep, Angoa
    Жанр: семейный, комедия, мультфильм
    Режиссер: Дэвид Ало
    Актеры: Пол Борн, Филипп Бозо, Паскаль Касанова, Эммануэль Кюртиль, Мишель Меля, Селин Монсарра, Лоран Морто, Жан-Филипп Пюмартин, Барбара Тиссье, Алексис Томассиан

    Описание

    Пингвин Морис тигрового окраса уверен, что он и в самом деле тигр — герой, в котором нуждаются джунгли. Вместе со своей энергичной командой разношерстных животных под названием Дозор джунглей он неусыпно стоит на страже справедливости и покоя. С переменным успехом, конечно, но они стараются. Однако вскоре ему предстоит столкнуться с невероятно коварным и безжалостным врагом — коалой Игорем и его армией туповатых бабуинов…

    Возраст: 6+ (зрителям, достигшим 6 лет)
    Дата мировой премьеры: 13 июня 2017
    Дата российской премьеры: 7 сентября 2017, Вольга
    Продолжительность: 01: 37: 04
    Качество видео: BDRip
    Перевод: Дублированный (Лицензия Blu-Ray RUS)
    Видео: AVC/H.264, 1280x536, ~3375 Kbps
    Аудио: AAC, 2 ch, 192 kbps - русский

    Полное имя : D: i7-3820Les.as.de.la.jungle.2017.BDRip720p.x264.nnm-club.mp4
    Формат : MPEG-4
    Профиль формата : Base Media
    Идентификатор кодека : isom (isom/iso2/avc1/mp41)
    Размер файла : 2, 42 Гбайт
    Продолжительность : 1 ч. 37 м.
    Общий поток : 3572 Кбит/сек
    Программа кодирования : XviD4PSP 7.0.129
    Видео
    Идентификатор : 1
    Формат : AVC
    Формат/Информация : Advanced Video Codec
    Профиль формата : High@L4.1
    Параметр CABAC формата : Да
    Параметр ReFrames формата : 4 кадра
    Идентификатор кодека : avc1
    Идентификатор кодека/Информация : Advanced Video Coding
    Продолжительность : 1 ч. 37 м.
    Битрейт : 3375 Кбит/сек
    Ширина : 1280 пикселей
    Высота : 536 пикселей
    Соотношение сторон : 2, 40: 1
    Режим частоты кадров : Постоянный
    Частота кадров : 24, 000 кадра/сек
    Цветовое пространство : YUV
    Субдискретизация насыщенности : 4: 2: 0
    Битовая глубина : 8 бит
    Тип развёртки : Прогрессивная
    Бит/(Пиксели*Кадры) : 0.205
    Размер потока : 2, 29 Гбайт (94%)
    Библиотека кодирования : x264 core 146 r2538M 121396c
    Настройки программы : cabac=1/ref=5/deblock=1: -1: -1/analyse=0x3: 0x133/me=umh/subme=8/psy=1/psy_rd=1, 00: 0, 15/mixed_ref=1/me_range=24/chroma_me=1/trellis=1/8x8dct=1/cqm=0/deadzone=21, 11/fast_pskip=1/chroma_qp_offset=-3/threads=24/lookahead_threads=4/sliced_threads=0/nr=0/decimate=1/interlaced=0/bluray_compat=0/constrained_intra=0/bframes=5/b_pyramid=1/b_adapt=2/b_bias=0/direct=3/weightb=1/open_gop=0/weightp=2/keyint=240/keyint_min=24/scenecut=40/intra_refresh=0/rc_lookahead=240/rc=2pass/mbtree=1/bitrate=3375/ratetol=1, 0/qcomp=0, 60/qpmin=10/qpmax=51/qpstep=4/cplxblur=20, 0/qblur=0, 5/ip_ratio=1, 40/aq=1: 1, 00
    Аудио
    Идентификатор : 2
    Формат : AAC
    Формат/Информация : Advanced Audio Codec
    Профиль формата : LC
    Идентификатор кодека : 40
    Продолжительность : 1 ч. 37 м.
    Вид битрейта : Постоянный
    Битрейт : 192 Кбит/сек
    Каналы : 2 канала
    Расположение каналов : Front: L R
    Частота : 48, 0 КГц
    Частота кадров : 46, 875 кадров/сек
    Метод сжатия : С потерями
    Размер потока : 133 Мбайт (5%)
    Язык : Russian
    Default : Да
    Alternate group : 1
    Скриншоты:


    Мультфильм Дозор джунглей/Les as de la jungle на NNM-CLUB
    Время раздачи: 24/7 (до появления первых 3-5 скачавших)


    Дозор джунглей/Les as de la jungle (2017) BDRip [H.264] [MP4|1280x536]
    Рейтинг →
     (голосов: 1, оценка 3/5, голосовать можно 1 раз )

    Другие торренты по теме:

  • Дозор джунглей / Les as de la jungle (2017) HDRip
  • Дозор джунглей / Les as de la jungle (2017) Blu-ray [H.264 / 1080p]
  • Дозор джунглей / Les as de la jungle (2017) BDRip [H.264]
  • Дозор джунглей / Les as de la jungle (2017) BDRip [H.264 / 1080p]
  • Дозор джунглей / Les as de la jungle (2017) BDRip [1080p] ATV
  • Дозор джунглей / Les as de la jungle (2017) BDRip [720p] ATV
  • Дозор джунглей / Les as de la jungle (2017) BDRip [576p] iPad
  • Дозор джунглей / Les as de la jungle (2017) BDRip [480p] iPod


    • Комментарии (0):

      Информация

      Информация

        Посетители, находящиеся в группе Гости, не могут оставлять комментарии в данной новости.

        ↓ Меню




        ↓ Опрос

        Вы добавили сайт в закладки?
        Да
        Нет


        Top 10 за месяц (КПК и мобильные)