.
Авторизация | Регистрация
Хочешь лучшие торренты? Добавь свой email!
Добавить

Торрент скачать бесплатно

» » Люди Икс 2 / X2 (2003) HDRip [H.264] [MP4|1280x534] торрент скачать бесплатно


    Люди Икс 2 / X2 (2003) HDRip [H.264] [MP4|1280x534] торрент скачать бесплатно

    Опубликовал: Админ | Дата: 21-03-2018, 05:00 | .torrent скачали: 0

    Люди Икс 2 / X2 (2003) HDRip [H.264] [MP4|1280x534]Производство: Канада, США
    Жанр: Фантастика, Фэнтези, Боевик, Триллер
    Режиссер: Брайан Сингер
    Продюсер: Лорен Шулер Доннер, Ральф Уинтер, Ави Арад
    Актеры: Хью Джекман, Патрик Стюарт, Иэн МакКеллен, Холли Берри, Фамке Янссен, Джеймс Марсден, Анна Пакуин, Ребекка Ромин, Брайан Кокс, Алан Камминг

    Описание

    Мутанты продолжают борьбу против общества, которое страшит их, и которому они не доверяют. Их положение становится еще более отчаянным, когда они подвергаются мощной атаке неизвестного противника, обладающего экстраординарными способностями.
    Внезапное нападение снова становится причиной политического и общественного резонанса по поводу введения повсеместной регистрации мутантов и причиной образования движения против мутантов, возглавляемого Уильямом Страйкером, бывшим военным, который, по слухам, проводил опыты над мутантами.

    Возраст: 12+ (зрителям, достигшим 12 лет)
    Рейтинг MPAA: PG-13 (детям до 13 лет просмотр нежелателен)
    Дата мировой премьеры: 24 апреля 2003
    Дата российской премьеры: 7 мая 2003
    Продолжительность: 02: 13: 47
    Качество видео: HDRip
    Перевод: Дублированный (Лицензия)
    Субтитры: Русские (полные), Английские (полные)
    Видео: AVC/H.264, 1280x534, ~1110 Kbps
    Аудио: AAC, 2 ch, ~128 Kbps

    Общее
    Полное имя : E: Download1Люди Икс 2 2003 720p.mp4
    Формат : MPEG-4
    Профиль формата : Base Media
    Идентификатор кодека : isom (isom/avc1)
    Размер файла : 1, 16 Гбайт
    Продолжительность : 2 ч. 13 м.
    Режим общего битрейта : Переменный
    Общий поток : 1241 Кбит/сек
    Дата кодирования : UTC 2018-03-18 15: 27: 56
    Дата пометки : UTC 2018-03-18 15: 27: 56
    Видео
    Идентификатор : 1
    Формат : AVC
    Формат/Информация : Advanced Video Codec
    Профиль формата : High@L3.1
    Настройки формата : CABAC/1 Ref Frames
    Параметр CABAC формата : Да
    Параметр RefFrames формата : 1 кадр
    Идентификатор кодека : avc1
    Идентификатор кодека/Информация : Advanced Video Coding
    Продолжительность : 2 ч. 13 м.
    Битрейт : 1110 Кбит/сек
    Максимальный битрейт : 6463 Кбит/сек
    Ширина : 1280 пикселей
    Высота : 534 пикселя
    Соотношение сторон : 2, 40: 1
    Режим частоты кадров : Постоянный
    Частота кадров : 23, 976 (24000/1001) кадра/сек
    Цветовое пространство : YUV
    Субдискретизация насыщенности : 4: 2: 0
    Битовая глубина : 8 бит
    Тип развёртки : Прогрессивная
    Бит/(Пиксели*Кадры) : 0.068
    Размер потока : 1, 04 Гбайт (89%)
    Дата кодирования : UTC 2018-03-18 15: 27: 56
    Дата пометки : UTC 2018-03-18 15: 30: 23
    Цветовой диапазон : Limited
    Основные цвета : BT.709
    Характеристики трансфера : BT.709
    Коэффициенты матрицы : BT.709
    Аудио
    Идентификатор : 2
    Формат : AAC
    Формат/Информация : Advanced Audio Codec
    Профиль формата : LC
    Идентификатор кодека : mp4a-40-2
    Продолжительность : 2 ч. 13 м.
    Вид битрейта : Переменный
    Битрейт : 128 Кбит/сек
    Максимальный битрейт : 137 Кбит/сек
    Каналы : 2 канала
    Расположение каналов : Front: L R
    Частота : 48, 0 КГц
    Частота кадров : 46, 875 кадров/сек (1024 SPF)
    Метод сжатия : С потерями
    Размер потока : 123 Мбайт (10%)
    Заголовок : Дублированный (Лицензия)
    Язык : Russian
    Дата кодирования : UTC 2018-03-18 15: 29: 51
    Дата пометки : UTC 2018-03-18 15: 30: 23
    Текст #1
    Идентификатор : 3
    Формат : Timed Text
    Идентификатор кодека : tx3g
    Продолжительность : 2 ч. 5 м.
    Вид битрейта : Переменный
    Битрейт : 59 бит/сек
    Размер потока : 54, 2 Кбайт (0%)
    Заголовок : Full
    Язык : Russian
    Forced : Нет
    Дата кодирования : UTC 2018-03-18 15: 30: 22
    Дата пометки : UTC 2018-03-18 15: 30: 23
    Текст #2
    Идентификатор : 4
    Формат : Timed Text
    Идентификатор кодека : tx3g
    Продолжительность : 2 ч. 5 м.
    Вид битрейта : Переменный
    Битрейт : 42 бит/сек
    Размер потока : 38, 4 Кбайт (0%)
    Заголовок : Full
    Язык : English
    Forced : Нет
    Дата кодирования : UTC 2018-03-18 15: 30: 23
    Дата пометки : UTC 2018-03-18 15: 30: 23
    Скриншоты:


    Все одноименные релизы в Клубе
    Время раздачи: с 9: 00 до 21: 00 (до появления первых 3-5 скачавших)


    Люди Икс 2/X2 (2003) HDRip [H.264] [MP4|1280x534]
    Рейтинг →
     (голосов: 1, оценка 3/5, голосовать можно 1 раз )

    Другие торренты по теме:

  • Люди Икс: Дни минувшего будущего / X-Men: Days of Future Past (2014) HDRip скачать через торрент бесплатно
  • Легкие деньги / Хорошие люди / Good People (2014) HDRip скачать через торрент бесплатно
  • Хорошие люди / Легкие деньги / Good People (2014) HDRip скачать через торрент бесплатно
  • Легкие деньги / Хорошие люди / Good People (2014) HDRip скачать через торрент бесплатно
  • Люди Икс: Дни минувшего будущего / X-Men: Days of Future Past (2014) HDRip [The Rogue Cut] скачать через торрент бесплатно
  • Люди Икс: Дни минувшего будущего / X-Men: Days of Future Past (2014) HDRip [H.264] [The Rogue Cut] скачать через торрент бесплатно
  • Люди Икс: Дни минувшего будущего / X-Men: Days of Future Past (2014) HDRip [H.264] [MP4|960х400] [The Rogue Cut] скачать через торрент бесплатно
  • Таинственные люди / Mystery Men (1999) HDRip скачать через торрент бесплатно


    • Комментарии (0):

      Информация

      Информация

        Посетители, находящиеся в группе Гости, не могут оставлять комментарии в данной новости.

        ↓ Меню




        ↓ Опрос

        Вы добавили сайт в закладки?
        Да
        Нет


        Top 10 за месяц (КПК и мобильные)