.
Авторизация | Регистрация
Хочешь лучшие торренты? Добавь свой email!
Добавить

Торрент скачать бесплатно

  • support: webmaster@btracker.org
» » Люди Икс 2 / X2 (2003) HDRip [H.264] [MP4|1920x800] торрент скачать бесплатно


    Люди Икс 2 / X2 (2003) HDRip [H.264] [MP4|1920x800] торрент скачать бесплатно

    Опубликовал: Админ | Дата: 21-03-2018, 05:00 | .torrent скачали: 0

    Люди Икс 2 / X2 (2003) HDRip [H.264] [MP4|1920x800]Производство: Канада, США
    Жанр: Фантастика, Фэнтези, Боевик, Триллер
    Режиссер: Брайан Сингер
    Продюсер: Лорен Шулер Доннер, Ральф Уинтер, Ави Арад
    Актеры: Хью Джекман, Патрик Стюарт, Иэн МакКеллен, Холли Берри, Фамке Янссен, Джеймс Марсден, Анна Пакуин, Ребекка Ромин, Брайан Кокс, Алан Камминг

    Описание

    Мутанты продолжают борьбу против общества, которое страшит их, и которому они не доверяют. Их положение становится еще более отчаянным, когда они подвергаются мощной атаке неизвестного противника, обладающего экстраординарными способностями.
    Внезапное нападение снова становится причиной политического и общественного резонанса по поводу введения повсеместной регистрации мутантов и причиной образования движения против мутантов, возглавляемого Уильямом Страйкером, бывшим военным, который, по слухам, проводил опыты над мутантами.

    Возраст: 12+ (зрителям, достигшим 12 лет)
    Рейтинг MPAA: PG-13 (детям до 13 лет просмотр нежелателен)
    Дата мировой премьеры: 24 апреля 2003
    Дата российской премьеры: 7 мая 2003
    Продолжительность: 02: 13: 47
    Качество видео: HDRip
    Перевод: Дублированный (Лицензия)
    Субтитры: Русские (полные), Английские (полные)
    Видео: AVC/H.264, 1920x800, ~1815 Kbps
    Аудио: AC3, 6 ch, 384 Kbps

    Общее
    Полное имя : E: Download1Люди Икс 2 2003 1080p.mp4
    Формат : MPEG-4
    Профиль формата : Base Media
    Идентификатор кодека : isom (isom/avc1/iso6)
    Размер файла : 2, 06 Гбайт
    Продолжительность : 2 ч. 13 м.
    Режим общего битрейта : Переменный
    Общий поток : 2201 Кбит/сек
    Дата кодирования : UTC 2018-03-18 15: 35: 05
    Дата пометки : UTC 2018-03-18 15: 35: 05
    Видео
    Идентификатор : 1
    Формат : AVC
    Формат/Информация : Advanced Video Codec
    Профиль формата : High@L4
    Настройки формата : CABAC/2 Ref Frames
    Параметр CABAC формата : Да
    Параметр RefFrames формата : 2 кадра
    Идентификатор кодека : avc1
    Идентификатор кодека/Информация : Advanced Video Coding
    Продолжительность : 2 ч. 13 м.
    Битрейт : 1815 Кбит/сек
    Максимальный битрейт : 10, 5 Мбит/сек
    Ширина : 1920 пикселей
    Высота : 800 пикселей
    Соотношение сторон : 2, 40: 1
    Режим частоты кадров : Постоянный
    Частота кадров : 23, 976 (24000/1001) кадра/сек
    Цветовое пространство : YUV
    Субдискретизация насыщенности : 4: 2: 0
    Битовая глубина : 8 бит
    Тип развёртки : Прогрессивная
    Бит/(Пиксели*Кадры) : 0.049
    Размер потока : 1, 70 Гбайт (82%)
    Дата кодирования : UTC 2018-03-18 15: 35: 05
    Дата пометки : UTC 2018-03-18 15: 39: 01
    Цветовой диапазон : Limited
    Основные цвета : BT.709
    Характеристики трансфера : BT.709
    Коэффициенты матрицы : BT.709
    Аудио
    Идентификатор : 2
    Формат : AC-3
    Формат/Информация : Audio Coding 3
    Параметр Endianness формата : Big
    Идентификатор кодека : ac-3
    Продолжительность : 2 ч. 13 м.
    Вид битрейта : Постоянный
    Битрейт : 384 Кбит/сек
    Максимальный битрейт : 406 Кбит/сек
    Каналы : 6 каналов
    Расположение каналов : Front: L C R, Side: L R, LFE
    Частота : 48, 0 КГц
    Частота кадров : 31, 250 кадров/сек (1536 SPF)
    Битовая глубина : 16 бит
    Метод сжатия : С потерями
    Размер потока : 367 Мбайт (17%)
    Заголовок : Дублированный (Лицензия)
    Язык : Russian
    ServiceKind/String : Complete Main
    Дата кодирования : UTC 2018-03-18 15: 37: 41
    Дата пометки : UTC 2018-03-18 15: 39: 01
    Текст #1
    Идентификатор : 3
    Формат : Timed Text
    Идентификатор кодека : tx3g
    Продолжительность : 2 ч. 5 м.
    Вид битрейта : Переменный
    Битрейт : 59 бит/сек
    Размер потока : 54, 2 Кбайт (0%)
    Заголовок : Full
    Язык : Russian
    Forced : Нет
    Дата кодирования : UTC 2018-03-18 15: 39: 01
    Дата пометки : UTC 2018-03-18 15: 39: 01
    Текст #2
    Идентификатор : 4
    Формат : Timed Text
    Идентификатор кодека : tx3g
    Продолжительность : 2 ч. 5 м.
    Вид битрейта : Переменный
    Битрейт : 42 бит/сек
    Размер потока : 38, 4 Кбайт (0%)
    Заголовок : Full
    Язык : English
    Forced : Нет
    Дата кодирования : UTC 2018-03-18 15: 39: 01
    Дата пометки : UTC 2018-03-18 15: 39: 01
    Скриншоты:


    Все одноименные релизы в Клубе
    Время раздачи: с 9: 00 до 21: 00 (до появления первых 3-5 скачавших)


    Люди Икс 2/X2 (2003) HDRip [H.264] [MP4|1920x800]
    Рейтинг →
     (голосов: 1, оценка 4/5, голосовать можно 1 раз )

    Другие торренты по теме:

  • Люди Икс: Дни минувшего будущего / X-Men: Days of Future Past (2014) HDRip скачать через торрент бесплатно
  • Легкие деньги / Хорошие люди / Good People (2014) HDRip скачать через торрент бесплатно
  • Хорошие люди / Легкие деньги / Good People (2014) HDRip скачать через торрент бесплатно
  • Легкие деньги / Хорошие люди / Good People (2014) HDRip скачать через торрент бесплатно
  • Люди Икс: Дни минувшего будущего / X-Men: Days of Future Past (2014) HDRip [The Rogue Cut] скачать через торрент бесплатно
  • Люди Икс: Дни минувшего будущего / X-Men: Days of Future Past (2014) HDRip [H.264] [The Rogue Cut] скачать через торрент бесплатно
  • Люди Икс: Дни минувшего будущего / X-Men: Days of Future Past (2014) HDRip [H.264] [MP4|960х400] [The Rogue Cut] скачать через торрент бесплатно
  • Таинственные люди / Mystery Men (1999) HDRip скачать через торрент бесплатно


    • Комментарии (0):

      Информация

      Информация

        Посетители, находящиеся в группе Гости, не могут оставлять комментарии в данной новости.

        ↓ Меню




        ↓ Опрос

        Вы добавили сайт в закладки?
        Да
        Нет


        Top 10 за месяц (КПК и мобильные)