.
Авторизация | Регистрация
Хочешь лучшие торренты? Добавь свой email!
Добавить

Торрент скачать бесплатно

  • support: webmaster@btracker.org
» » Люди Икс / X-Men (2000) HDRip [H.264] [MP4|1920x818] торрент скачать бесплатно

    Люди Икс / X-Men (2000) HDRip [H.264] [MP4|1920x818] торрент скачать бесплатно

    Опубликовал: Админ | Дата: 20-03-2018, 05:00 | .torrent скачали: 0

    Люди Икс / X-Men (2000) HDRip [H.264] [MP4|1920x818]Производство: США
    Жанр: Фантастика, Боевик, Приключения
    Режиссер: Брайан Сингер
    Актеры: Хью Джекман, Патрик Стюарт, Иэн МакКеллен, Фамке Янссен, Джеймс Марсден, Холли Берри, Анна Пакуин, Тайлер Мэйн, Рэй Парк, Ребекка Ромин, Брюс Дэвисон, Мэттью Шарп, Кеннет МакГрегор

    Описание

    Они — дети атомного века, сверхлюди, новое звено в цепи эволюции. Каждый из них был рождён в результате уникальной генетической мутации, наделившей их с детства необыкновенными способностями. Под руководством профессора Чарльза Ксавьера, телепата с мировым именем, одарённые ученики научились контролировать и управлять своими удивительными способностями в интересах человечества.
    Но не все мутанты разделяют взгляды профессора: могущественный мутант Магнето, которому подвластны все металлы, собрал команду единомышленников. Он не верит, что люди и мутанты когда-либо смогут мирно сосуществовать. Они разработали план, чтобы осуществить захват власти над миром, и тогда, только ученики профессора Ксавьера смогут защитить этот мир…

    Возраст: 12+ (зрителям, достигшим 12 лет)
    Рейтинг MPAA: PG-13 (детям до 13 лет просмотр нежелателен)
    Продолжительность: 01: 44: 20
    Качество видео: HDRip
    Перевод: Дублированный (Лицензия)
    Субтитры: Русские (полные), Английские (полные)
    Видео: AVC/H.264, 1920x818, ~1727 Kbps
    Аудио: AC3, 6 ch, 384 Kbps

    Общее
    Полное имя : E: Download1Люди Икс 2000 1080p.mp4
    Формат : MPEG-4
    Профиль формата : Base Media
    Идентификатор кодека : isom (isom/avc1/iso6)
    Размер файла : 1, 54 Гбайт
    Продолжительность : 1 ч. 44 м.
    Режим общего битрейта : Переменный
    Общий поток : 2113 Кбит/сек
    Дата кодирования : UTC 2018-03-18 18: 08: 39
    Дата пометки : UTC 2018-03-18 18: 08: 39
    Видео
    Идентификатор : 1
    Формат : AVC
    Формат/Информация : Advanced Video Codec
    Профиль формата : High@L4
    Настройки формата : CABAC/2 Ref Frames
    Параметр CABAC формата : Да
    Параметр RefFrames формата : 2 кадра
    Идентификатор кодека : avc1
    Идентификатор кодека/Информация : Advanced Video Coding
    Продолжительность : 1 ч. 44 м.
    Битрейт : 1727 Кбит/сек
    Максимальный битрейт : 10, 4 Мбит/сек
    Ширина : 1920 пикселей
    Высота : 818 пикселей
    Соотношение сторон : 2, 35: 1
    Режим частоты кадров : Постоянный
    Частота кадров : 23, 976 (24000/1001) кадра/сек
    Цветовое пространство : YUV
    Субдискретизация насыщенности : 4: 2: 0
    Битовая глубина : 8 бит
    Тип развёртки : Прогрессивная
    Бит/(Пиксели*Кадры) : 0.046
    Размер потока : 1, 26 Гбайт (82%)
    Дата кодирования : UTC 2018-03-18 18: 08: 39
    Дата пометки : UTC 2018-03-18 18: 09: 43
    Цветовой диапазон : Limited
    Основные цвета : BT.709
    Характеристики трансфера : BT.709
    Коэффициенты матрицы : BT.709
    Аудио
    Идентификатор : 2
    Формат : AC-3
    Формат/Информация : Audio Coding 3
    Параметр Endianness формата : Big
    Идентификатор кодека : ac-3
    Продолжительность : 1 ч. 44 м.
    Вид битрейта : Постоянный
    Битрейт : 384 Кбит/сек
    Максимальный битрейт : 406 Кбит/сек
    Каналы : 6 каналов
    Расположение каналов : Front: L C R, Side: L R, LFE
    Частота : 48, 0 КГц
    Частота кадров : 31, 250 кадров/сек (1536 SPF)
    Битовая глубина : 16 бит
    Метод сжатия : С потерями
    Размер потока : 287 Мбайт (18%)
    Заголовок : Дублированный (Лицензия)
    Язык : Russian
    ServiceKind/String : Complete Main
    Дата кодирования : UTC 2018-03-18 18: 09: 27
    Дата пометки : UTC 2018-03-18 18: 09: 43
    Текст #1
    Идентификатор : 3
    Формат : Timed Text
    Идентификатор кодека : tx3g
    Продолжительность : 1 ч. 34 м.
    Вид битрейта : Переменный
    Битрейт : 60 бит/сек
    Размер потока : 41, 3 Кбайт (0%)
    Заголовок : Full
    Язык : Russian
    Forced : Нет
    Дата кодирования : UTC 2018-03-18 18: 09: 43
    Дата пометки : UTC 2018-03-18 18: 09: 43
    Текст #2
    Идентификатор : 4
    Формат : Timed Text
    Идентификатор кодека : tx3g
    Продолжительность : 1 ч. 34 м.
    Вид битрейта : Переменный
    Битрейт : 42 бит/сек
    Размер потока : 29, 2 Кбайт (0%)
    Заголовок : Full
    Язык : English
    Forced : Нет
    Дата кодирования : UTC 2018-03-18 18: 09: 43
    Дата пометки : UTC 2018-03-18 18: 09: 43
    Скриншоты:


    Все одноименные релизы в Клубе
    Время раздачи: с 9: 00 до 21: 00 (до появления первых 3-5 скачавших)

    Прямая ссылка скачивания через uTorrent


    Люди Икс/X-Men (2000) HDRip [H.264] [MP4|1920x818]
    Рейтинг →
     (голосов: 1, оценка 4/5, голосовать можно 1 раз )

    Другие торренты по теме:

  • Люди Икс: Дни минувшего будущего / X-Men: Days of Future Past (2014) WEB-DL [720p]
  • Люди Икс: Дни минувшего будущего / X-Men: Days of Future Past (2014) DVD9
  • Henry Jackman & VA - Люди Икс Первый класс / X-Men: First Class (Complete Score + Unofficial) (2011)
  • Люди Икс: Дни минувшего будущего / X-Men: Days of Future Past (2014) DVDRip [H264] скачать через торрент бесплатно
  • Люди Икс: Дни минувшего будущего / X-Men: Days of Future Past (2014) DVDRip [H.264] скачать через торрент бесплатно
  • Люди Икс: Дни минувшего будущего / X-Men: Days of Future Past (2014) DVD5 скачать через торрент бесплатно
  • Люди Икс: Дни минувшего будущего / X-Men: Days of Future Past (2014) HDRip скачать через торрент бесплатно
  • Люди Икс: Дни минувшего будущего / X-Men: Days of Future Past (2014) BDRemux [1080p] скачать через торрент бесплатно


    • Комментарии (0):

      Информация

      Информация

        Посетители, находящиеся в группе Гости, не могут оставлять комментарии в данной новости.

        ↓ Меню




        ↓ Опрос

        Вы добавили сайт в закладки?
        Да
        Нет


        Top 10 за месяц (КПК и мобильные)