.
Авторизация | Регистрация
Хочешь лучшие торренты? Добавь свой email!
Добавить

Торрент скачать бесплатно

  • support: webmaster@btracker.org
» » Звезда пленительного счастья (1975) WEB-DL [H.264] [MP4|1920x1080] торрент скачать бесплатно


    Звезда пленительного счастья (1975) WEB-DL [H.264] [MP4|1920x1080] торрент скачать бесплатно

    Опубликовал: Админ | Дата: 20-03-2018, 05:00 | .torrent скачали: 1

    Звезда пленительного счастья (1975) WEB-DL [H.264] [MP4|1920x1080]Производство: СССР
    Жанр: Драма, мелодрама, история
    Режиссер: Владимир Мотыль
    Актеры: Ирина Купченко, Алексей Баталов, Наталья Бондарчук, Олег Стриженов, Эва Шикульска, Игорь Костолевский, Раиса Куркина, Татьяна Панкова, Олег Янковский, Татьяна Федорова

    Описание

    После подавления восстания на Сенатской площади события развивались трагически: пятеро декабристов казнены, большинство отправлены в Сибирь. И вслед за ними, сквозь мороз и лишения, поехали их жены…

    Возраст: 12+ (зрителям, достигшим 12 лет)
    Релиз от: Алехаndr
    Продолжительность: 02: 38: 29
    Качество видео: WEB-DL
    Субтитры: Отсутствуют
    Видео: AVC/H.264, 1920x1080 (16: 9), ~3280 Kbps
    Аудио: AAC, 2 ch, 126 Kbps

    Общее
    Полное имя : G: Звезда пленительного счастья (1975).by.Алехаndr.mp4
    Формат : MPEG-4
    Профиль формата : Base Media
    Идентификатор кодека : isom (isom/iso2/avc1/mp41)
    Размер файла : 3, 78 Гбайт
    Продолжительность : 2 ч. 38 м.
    Общий поток : 3412 Кбит/сек
    Программа кодирования : Lavf56.40.101
    Видео
    Идентификатор : 1
    Формат : AVC
    Формат/Информация : Advanced Video Codec
    Профиль формата : High@L4
    Настройки формата : CABAC/2 Ref Frames
    Параметр CABAC формата : Да
    Параметр RefFrames формата : 2 кадра
    Идентификатор кодека : avc1
    Идентификатор кодека/Информация : Advanced Video Coding
    Продолжительность : 2 ч. 38 м.
    Duration_FirstFrame : -40 мс.
    Битрейт : 3281 Кбит/сек
    Ширина : 1920 пикселей
    Высота : 1080 пикселей
    Соотношение сторон : 16: 9
    Режим частоты кадров : Переменный
    Частота кадров : 25, 000 кадров/сек
    Минимальная частота кадров : 25, 000 кадров/сек
    Максимальная частота кадров : 25, 014 кадров/сек
    Цветовое пространство : YUV
    Субдискретизация насыщенности : 4: 2: 0
    Битовая глубина : 8 бит
    Тип развёртки : Прогрессивная
    Бит/(Пиксели*Кадры) : 0.063
    Размер потока : 3, 63 Гбайт (96%)
    Цветовой диапазон : Limited
    Основные цвета : BT.709
    Характеристики трансфера : BT.709
    Коэффициенты матрицы : BT.709
    Аудио
    Идентификатор : 2
    Формат : AAC
    Формат/Информация : Advanced Audio Codec
    Профиль формата : LC
    Идентификатор кодека : mp4a-40-2
    Продолжительность : 2 ч. 38 м.
    Вид битрейта : Постоянный
    Битрейт : 126 Кбит/сек
    Каналы : 2 канала
    Расположение каналов : Front: L R
    Частота : 44, 1 КГц
    Частота кадров : 43, 066 кадра/сек (1024 SPF)
    Метод сжатия : С потерями
    Размер потока : 142 Мбайт (4%)
    Default : Да
    AlternateGroup/String : 1
    Скриншоты:


    Все одноименные релизы в Клубе
    Время раздачи: 24/7 (круглосуточно) (до появления первых 3-5 скачавших)


    Звезда пленительного счастья (1975) WEB-DL [H.264] [MP4|1920x1080]
    Рейтинг →
     (голосов: 1, оценка 5/5, голосовать можно 1 раз )

    Другие торренты по теме:

  • Звезда пленительного счастья (1975) HDTV [H.264 / 720p]
  • Звезда пленительного счастья (1975) BDRip [H.264 / 1080p]


    • Комментарии (0):

      Информация

      Информация

        Посетители, находящиеся в группе Гости, не могут оставлять комментарии в данной новости.

        ↓ Меню




        ↓ Опрос

        Вы добавили сайт в закладки?
        Да
        Нет


        Top 10 за месяц (КПК и мобильные)