.
Авторизация | Регистрация
Хочешь лучшие торренты? Добавь свой email!
Добавить

Торрент скачать бесплатно

» » Человек-Невидимка (2017) WEB-DLRip [H.264] (11 сезон: 14 выпусков из 14) [MP4|1280x720] торрент скачать бесплатно


    Человек-Невидимка (2017) WEB-DLRip [H.264] (11 сезон: 14 выпусков из 14) [MP4|1280x720] торрент скачать бесплатно

    Опубликовал: Админ | Дата: 19-03-2018, 05:01 | .torrent скачали: 0

    Человек-Невидимка (2017) WEB-DLRip [H.264] (11 сезон: 14 выпусков из 14) [MP4|1280x720]Производство: ТВ3
    Жанр: ТВ-шоу
    Участники: Эвелина Блёданс, Виктор Колкутин, Борис Акимов, Мария Пугачева, Роман Фад, Аида, Дардо Кусто

    Описание

    Шоу, которого боятся звезды. Не может быть!, Я не позволю!, Прекратите! Не надо! – именно эти фразы чаще всего можно услышать на съемочной площадке одного из самых популярных проектов ТВ-3 Человек-невидимка. Каждую пятницу многомиллионная армия телезрителей узнает о звездах российского шоу-бизнеса самые горячие факты и откровенные подробности. В студию приходят гости, имена которых не сходят с первых полос таблоидов. Но после участия в шоу Человек-невидимка знаменитости становятся другими… Эксперты, применяя свои сверхспособности, заглядывают в будущее, рассказывают о прошлом, раскрывают секреты и пороки гостя. В распоряжении специалистов всего несколько личных предметов звезды и совсем немного времени, чтобы узнать – кто же прячется от них за кулисами. Самые громкие заявления и сенсационные признания в шоу Человек-невидимка.
    Продолжительность: ~ 00: 49: 00 серия
    Качество видео: WEB-DLRip
    Видео: AVC/H.264, 1280х720, ~3600 Kbps
    Аудио: AAC, 2 ch, 129 Kbps

    бщее
    Полное имя : M: Человек-НевидимкаЧеловек-Невидимка. Сезон 11 (2017)Человек-Невидимка_11 сезон_04_Александр Носик.mp4
    Формат : MPEG-4
    Профиль формата : Base Media
    Идентификатор кодека : isom (isom/iso2/avc1/mp41)
    Размер файла : 1, 27 Гбайт
    Продолжительность : 48 м. 54 с.
    Режим общего битрейта : Переменный
    Общий поток : 3725 Кбит/сек
    Программа кодирования : Lavf57.2.100
    Видео
    Идентификатор : 1
    Формат : AVC
    Формат/Информация : Advanced Video Codec
    Профиль формата : High@L3.1
    Настройки формата : CABAC/1 Ref Frames
    Параметр CABAC формата : Да
    Параметр RefFrames формата : 1 кадр
    Параметр GOP формата : M=1, N=12
    Идентификатор кодека : avc1
    Идентификатор кодека/Информация : Advanced Video Coding
    Продолжительность : 48 м. 54 с.
    Битрейт : 3593 Кбит/сек
    Ширина : 1280 пикселей
    Высота : 720 пикселей
    Соотношение сторон : 16: 9
    Режим частоты кадров : Переменный
    Частота кадров : 25, 000 кадров/сек
    Минимальная частота кадров : 12, 500 кадров/сек
    Максимальная частота кадров : 25, 000 кадров/сек
    Стандарт вещания : Component
    Цветовое пространство : YUV
    Субдискретизация насыщенности : 4: 2: 0
    Битовая глубина : 8 бит
    Тип развёртки : Прогрессивная
    Бит/(Пиксели*Кадры) : 0.156
    Размер потока : 1, 23 Гбайт (96%)
    Цветовой диапазон : Limited
    Аудио
    Идентификатор : 2
    Формат : AAC
    Формат/Информация : Advanced Audio Codec
    Профиль формата : HE-AACv2/HE-AAC/LC
    Настройки формата : Implicit
    Идентификатор кодека : mp4a-40-2
    Продолжительность : 48 м. 54 с.
    Вид битрейта : Переменный
    Битрейт : 129 Кбит/сек
    Каналы : 2 канала/2 канала/2 канала
    Расположение каналов : Front: L R/Front: L R/Front: L R
    Частота : 44, 1 КГц/44, 1 КГц/22, 05 КГц
    Частота кадров : 21, 533 кадра/сек (1024 SPF)
    Метод сжатия : С потерями
    Размер потока : 44, 8 Мбайт (3%)
    Default : Да
    AlternateGroup/String : 1


    Человек-Невидимка (2017) WEB-DLRip [H.264] (11 сезон: 14 выпусков из 14) [MP4|1280x720]
    Рейтинг →
     (голосов: 1, оценка 4/5, голосовать можно 1 раз )

    Другие торренты по теме:

  • Человек-Невидимка (2017-2018) WEB-DLRip [H.264] (12 сезон: 16 выпусков из 16) [MP4|1280x720]


    • Комментарии (0):

      Информация

      Информация

        Посетители, находящиеся в группе Гости, не могут оставлять комментарии в данной новости.

        ↓ Меню




        ↓ Опрос

        Вы добавили сайт в закладки?
        Да
        Нет


        Top 10 за месяц (КПК и мобильные)