.
Авторизация | Регистрация
Хочешь лучшие торренты? Добавь свой email!
Добавить

Торрент скачать бесплатно

» » Вне времени / Timeless (2018) WEB-DLRip [H.264] (сезон 2, серии 1 из 10) LostFilm [MP4|720x400] (обновляемая) торрент скачать бесплатно


    Вне времени / Timeless (2018) WEB-DLRip [H.264] (сезон 2, серии 1 из 10) LostFilm [MP4|720x400] (обновляемая) торрент скачать бесплатно

    Опубликовал: Админ | Дата: 19-03-2018, 05:01 | .torrent скачали: 0

    Вне времени / Timeless (2018) WEB-DLRip [H.264] (сезон 2, серии 1 из 10) LostFilm [MP4|720x400] (обновляемая)Производство: США/MiddKid Productions, Kripke Enterprises, Davis Entertainment
    Жанр: фантастика, боевик, драма, приключения
    Режиссер: Чарльз Бисон, Нил Маршалл, Джон Терлески
    Актеры: Чад Рук, Эбигейл Спенсер, Мэтт Лантер, Горан Вишнич, Малкольм Баррет, Пэтерсон Джозеф, Сакина Джэффри, Клаудия Дурмит, Мэтт Фрюэр, Гектор Хьюго и др.

    Описание

    Таинственный преступник крадет секретную машину времени, намереваясь с ее помощью уничтожить Америку, изменив прошлое. На защиту страны встает необычная команда: профессор истории, солдат и ученый. Герои сериала Вне времени отправляются на прототипе украденной машины в путешествие во времени, останавливаясь в наиболее критических моментах для страны. Они должны приложить все усилия, чтобы самим не повлиять на ход истории, а также оставаться на шаг впереди опасного злоумышленника. Удастся ли им предотвратить надвигающуюся катастрофу?

    Продолжительность: ~00: 43: 00 серия
    Качество видео: WEB-DLRip
    Перевод: Многоголосый закадровый, профессиональный -LostFilm
    Реклама: присутствует заставка и логотип LostFilm
    Видео: AVC/H.264, 720x400 (16: 9), ~1325 kbps
    Аудио: MP3, 2 ch, 160 kbps - русский (MVO)

    Полное имя : L: Timeless_s2_WEB-DLRip_x264_LostFilm_NNM-CLUBTimeless.S02E01.WEB-DLRip.x264.LostFilm.mp4
    Формат : MPEG-4
    Профиль формата : Base Media
    Идентификатор кодека : isom (isom/iso2/avc1/mp41)
    Размер файла : 454 Мбайт
    Продолжительность : 42 м.
    Общий поток : 1489 Кбит/сек
    Программа кодирования : XviD4PSP 7.0.129
    Видео
    Идентификатор : 1
    Формат : AVC
    Формат/Информация : Advanced Video Codec
    Профиль формата : Main@L3
    Параметр CABAC формата : Нет
    Параметр ReFrames формата : 3 кадра
    Идентификатор кодека : avc1
    Идентификатор кодека/Информация : Advanced Video Coding
    Продолжительность : 42 м.
    Битрейт : 1325 Кбит/сек
    Ширина : 720 пикселей
    Высота : 400 пикселей
    Соотношение сторон : 16: 9
    Режим частоты кадров : Постоянный
    Частота кадров : 23, 976 кадра/сек
    Цветовое пространство : YUV
    Субдискретизация насыщенности : 4: 2: 0
    Битовая глубина : 8 бит
    Тип развёртки : Прогрессивная
    Бит/(Пиксели*Кадры) : 0.192
    Размер потока : 404 Мбайт (89%)
    Библиотека кодирования : x264 core 146 r2538M 121396c
    Настройки программы : cabac=0/ref=3/deblock=1: 0: 0/analyse=0x1: 0x131/me=hex/subme=7/psy=1/psy_rd=1, 00: 0, 20/mixed_ref=1/me_range=16/chroma_me=1/trellis=1/8x8dct=0/cqm=0/deadzone=21, 11/fast_pskip=1/chroma_qp_offset=-3/threads=24/lookahead_threads=3/sliced_threads=0/nr=0/decimate=1/interlaced=0/bluray_compat=0/constrained_intra=0/bframes=0/weightp=2/keyint=230/keyint_min=23/scenecut=0/intra_refresh=0/rc_lookahead=230/rc=2pass/mbtree=1/bitrate=1325/ratetol=1, 0/qcomp=0, 60/qpmin=10/qpmax=51/qpstep=4/cplxblur=20, 0/qblur=0, 5/ip_ratio=1, 40/aq=1: 1, 00
    Аудио
    Идентификатор : 2
    Формат : MPEG Audio
    Версия формата : Version 1
    Профиль формата : Layer 3
    Режим : Joint stereo
    Расширение режима : MS Stereo
    Идентификатор кодека : 6B
    Продолжительность : 42 м.
    Вид битрейта : Постоянный
    Битрейт : 160 Кбит/сек
    Каналы : 2 канала
    Частота : 48, 0 КГц
    Метод сжатия : С потерями
    Размер потока : 48, 8 Мбайт (11%)
    Библиотека кодирования : LAME3.99.5
    Язык : Russian
    Default : Да
    Alternate group : 1


    Вне времени/Timeless (2018) WEB-DLRip [H.264] (сезон 2, серии 1 из 10) LostFilm [MP4|720x400] (обновляемая)
    Рейтинг →
     (голосов: 1, оценка 4/5, голосовать можно 1 раз )

    Другие торренты по теме:

  • Вне времени / Timeless (2016) WEB-DLRip (сезон 1, серии 1 из 13) OmskBird (обновляемая)
  • Вне времени / Timeless (2016) WEB-DL [H.264 / 720p-LQ] (сезон 1, серии 1 из 13) OmskBird (обновляемая)
  • Вне времени / Timeless (2016) WEB-DLRip (сезон 1, серии 1 из 13) LostFilm (обновляемая)
  • Вне времени / Timeless (2016) WEB-DL [H.264 / 1080p -LQ] (сезон 1, серии 1 из 13) LostFilm (обновляемая)
  • Вне времени / Timeless (2016) WEB-DL / WEBRip [H.264 / 720p-LQ] (сезон 1, серии 1-7 из 13) BaibaKo (обновляемая)
  • Вне времени / Timeless (2016) WEB-DL / WEBRip [H.264 / 1080p-LQ] (сезон 1, серии 1-7 из 13) BaibaKo (обновляемая)
  • Вне времени / Timeless (2016) WEB-DL [H.264] (сезон 1, серии 1-10 из 13) LostFilm [MP4|1280x720]
  • Вне времени / Timeless (2018) WEB-DLRip [H.264] (сезон 2, серии 1 из 10) LostFilm [MP4|1280x720] (обновляемая)


    • Комментарии (0):

      Информация

      Информация

        Посетители, находящиеся в группе Гости, не могут оставлять комментарии в данной новости.

        ↓ Меню




        ↓ Опрос

        Вы добавили сайт в закладки?
        Да
        Нет


        Top 10 за месяц (КПК и мобильные)