.
Авторизация | Регистрация
Хочешь лучшие торренты? Добавь свой email!
Добавить

Торрент скачать бесплатно

  • support: webmaster@btracker.org
» » РЭД 2 / RED 2 (2013) HDRip [H.264] [MP4|1920x800] торрент скачать бесплатно


    РЭД 2 / RED 2 (2013) HDRip [H.264] [MP4|1920x800] торрент скачать бесплатно

    Опубликовал: Админ | Дата: 19-03-2018, 05:01 | .torrent скачали: 0

    РЭД 2 / RED 2 (2013) HDRip [H.264] [MP4|1920x800]Производство: США, Франция, Канада
    Жанр: Боевик, Комедия
    Режиссер: Дин Паризо
    Продюсер: Лоренцо Ди Бонавентура, Марк Вахрадян, Рафаэль Бенолье
    Актеры: Брюс Уиллис, Джон Малкович, Мэри-Луиз Паркер, Кэтрин Зета-Джонс, Ли Бён Хон, Энтони Хопкинс, Хелен Миррен, Йонг Кун Ли, Нил МакДонаф, Дэвид Тьюлис

    Описание

    Вышедший на пенсию тайный агент ЦРУ Фрэнк Мозес объединяется с командой старых друзей, элитных оперативников, с целью найти пропавшее оружие массового уничтожения. Чтобы его заполучить, придётся прорываться сквозь армии безжалостных наёмников, террористов и всегда жаждущих власти политиков.
    Миссия приводит Фрэнка и его разношёрстную команду вышедших на пенсию убийц в Париж, Лондон и Москву. В их арсенале есть только хитрость, старая сноровка и помощь друг друга, чтобы спасти мир и при этом самим остаться в живых.

    Возраст: 12+ (зрителям, достигшим 12 лет)
    Рейтинг MPAA: PG-13 (детям до 13 лет просмотр нежелателен)
    Дата мировой премьеры: 18 июля 2013
    Дата российской премьеры: 1 августа 2013
    Продолжительность: 01: 55: 48
    Качество видео: HDRip
    Перевод: Дублированный (Лицензия)
    Субтитры: Русские (форсированные, полные), Английские (полные)
    Видео: AVC/H.264, 1920x800, ~2097 Kbps
    Аудио: AC3, 6 ch, 384 Kbps

    Общее
    Полное имя : E: Download1РЭД 2 2013 1080p.mp4
    Формат : MPEG-4
    Профиль формата : Base Media
    Идентификатор кодека : isom (isom/avc1/iso6)
    Размер файла : 2, 01 Гбайт
    Продолжительность : 1 ч. 55 м.
    Режим общего битрейта : Переменный
    Общий поток : 2483 Кбит/сек
    Дата кодирования : UTC 2018-03-15 08: 57: 02
    Дата пометки : UTC 2018-03-15 08: 57: 02
    Видео
    Идентификатор : 1
    Формат : AVC
    Формат/Информация : Advanced Video Codec
    Профиль формата : High@L4
    Настройки формата : CABAC/2 Ref Frames
    Параметр CABAC формата : Да
    Параметр RefFrames формата : 2 кадра
    Идентификатор кодека : avc1
    Идентификатор кодека/Информация : Advanced Video Coding
    Продолжительность : 1 ч. 55 м.
    Битрейт : 2097 Кбит/сек
    Максимальный битрейт : 6558 Кбит/сек
    Ширина : 1920 пикселей
    Высота : 800 пикселей
    Соотношение сторон : 2, 40: 1
    Режим частоты кадров : Постоянный
    Частота кадров : 23, 976 (24000/1001) кадра/сек
    Цветовое пространство : YUV
    Субдискретизация насыщенности : 4: 2: 0
    Битовая глубина : 8 бит
    Тип развёртки : Прогрессивная
    Бит/(Пиксели*Кадры) : 0.057
    Размер потока : 1, 70 Гбайт (84%)
    Дата кодирования : UTC 2018-03-15 08: 57: 02
    Дата пометки : UTC 2018-03-15 08: 58: 57
    Цветовой диапазон : Limited
    Основные цвета : BT.709
    Характеристики трансфера : BT.709
    Коэффициенты матрицы : BT.709
    Аудио
    Идентификатор : 2
    Формат : AC-3
    Формат/Информация : Audio Coding 3
    Параметр Endianness формата : Big
    Идентификатор кодека : ac-3
    Продолжительность : 1 ч. 55 м.
    Вид битрейта : Постоянный
    Битрейт : 384 Кбит/сек
    Максимальный битрейт : 406 Кбит/сек
    Каналы : 6 каналов
    Расположение каналов : Front: L C R, Side: L R, LFE
    Частота : 48, 0 КГц
    Частота кадров : 31, 250 кадров/сек (1536 SPF)
    Битовая глубина : 16 бит
    Метод сжатия : С потерями
    Размер потока : 318 Мбайт (15%)
    Заголовок : Дублированный (Лицензия)
    Язык : Russian
    ServiceKind/String : Complete Main
    Дата кодирования : UTC 2018-03-15 08: 58: 33
    Дата пометки : UTC 2018-03-15 08: 58: 57
    Текст #1
    Идентификатор : 3
    Формат : Timed Text
    Идентификатор кодека : tx3g
    Продолжительность : 1 ч. 31 м.
    Вид битрейта : Переменный
    Битрейт : 1 бит/сек
    Размер потока : 575 байт (0%)
    Заголовок : Forced
    Язык : Russian
    Forced : Нет
    Дата кодирования : UTC 2018-03-15 08: 58: 57
    Дата пометки : UTC 2018-03-15 08: 58: 57
    Текст #2
    Идентификатор : 4
    Формат : Timed Text
    Идентификатор кодека : tx3g
    Продолжительность : 1 ч. 47 м.
    Вид битрейта : Переменный
    Битрейт : 97 бит/сек
    Размер потока : 76, 0 Кбайт (0%)
    Заголовок : Full
    Язык : Russian
    Forced : Нет
    Дата кодирования : UTC 2018-03-15 08: 58: 57
    Дата пометки : UTC 2018-03-15 08: 58: 57
    Текст #3
    Идентификатор : 5
    Формат : Timed Text
    Идентификатор кодека : tx3g
    Продолжительность : 1 ч. 47 м.
    Вид битрейта : Переменный
    Битрейт : 66 бит/сек
    Размер потока : 51, 4 Кбайт (0%)
    Заголовок : Full
    Язык : English
    Forced : Нет
    Дата кодирования : UTC 2018-03-15 08: 58: 57
    Дата пометки : UTC 2018-03-15 08: 58: 57
    Скриншоты:


    Все одноименные релизы в Клубе
    Время раздачи: с 9: 00 до 21: 00 (до появления первых 3-5 скачавших)


    РЭД 2/RED 2 (2013) HDRip [H.264] [MP4|1920x800]
    Рейтинг →
     (голосов: 1, оценка 5/5, голосовать можно 1 раз )

    Другие торренты по теме:

  • Сердцеед / Le retour du heros (2018) HDRip [H.264]
  • День выборов по-французски / Les Tuche 3 (2018) HDRip
  • Мёртвые, проклятые и тьма / The Dead the Damned and the Darkness (2014) HDRip [VO]HDRip скачать через торрент бесплатно
  • Опасный Джек / Ужас в больнице / Hazard Jack (2014) HDRip [VO]
  • Плохие слова / Bad Words (2013) HDRip [Line]
  • Город грехов 2: Женщина, ради которой стоит убивать / Sin City: A Dame to Kill For (2014) HDRip
  • Черный дождь / Black Rain (1989) HDRip
  • Безумная свадьба / Quest-ce quon a fait au Bon Dieu (2014) HDRip [Line]


    • Комментарии (0):

      Информация

      Информация

        Посетители, находящиеся в группе Гости, не могут оставлять комментарии в данной новости.

        ↓ Меню




        ↓ Опрос

        Вы добавили сайт в закладки?
        Да
        Нет


        Top 10 за месяц (КПК и мобильные)