.
Авторизация | Регистрация
Хочешь лучшие торренты? Добавь свой email!
Добавить

Торрент скачать бесплатно

» » Фердинанд / Ferdinand (2017) BDRip [H.264] [MP4|1280x536] торрент скачать бесплатно


    Фердинанд / Ferdinand (2017) BDRip [H.264] [MP4|1280x536] торрент скачать бесплатно

    Опубликовал: Админ | Дата: 19-03-2018, 05:01 | .torrent скачали: 0

    Фердинанд / Ferdinand (2017) BDRip [H.264] [MP4|1280x536]Производство: США/20th Century Fox Animation
    Жанр: семейный, комедия, мультфильм
    Режиссер: Карлос Салдана
    Актеры: Джон Сина, Кейт МакКиннон, Дэвид Теннант, Бобби Каннавейл, Энтони Андерсон, Джек Гор, Джет Юргенсмейер, Найл Диас, Колин Х. Мерфи, Карлос Салдана

    Описание

    Фердинанд — самый добродушный бык во всей Испании. Несмотря на внушительные размеры и недюжинную силу, он с детства предпочитал сидеть на лужайке и любоваться цветами вместо того, чтобы бодаться с другими быками. По нелепой случайности Фердинанд был выбран среди других соплеменников для участия в бое быков в Мадриде.
    Фердинанду предстоит отстоять свои миролюбивые убеждения и напомнить нам о том, что даже перед лицом трудностей главное — остаться собой. Ведь только так и можно изменить мир вокруг.

    Возраст: 6+ (зрителям, достигшим 6 лет)
    Продолжительность: 01: 48: 12
    Качество видео: BDRip
    Перевод: Дублированный (Лицензия BD EUR)
    Видео: AVC/H.264, 1280x536, ~3275 Kbps
    Аудио: AAC, 2 ch, 192 kbps - русский

    Полное имя : D: i7-3820Ferdinand.2017.BDRip720p.x264.nnm-club.mp4
    Формат : MPEG-4
    Профиль формата : Base Media
    Идентификатор кодека : isom (isom/iso2/avc1/mp41)
    Размер файла : 2, 62 Гбайт
    Продолжительность : 1 ч. 48 м.
    Общий поток : 3469 Кбит/сек
    Программа кодирования : XviD4PSP 7.0.129
    Видео
    Идентификатор : 1
    Формат : AVC
    Формат/Информация : Advanced Video Codec
    Профиль формата : High@L4.1
    Параметр CABAC формата : Да
    Параметр ReFrames формата : 4 кадра
    Идентификатор кодека : avc1
    Идентификатор кодека/Информация : Advanced Video Coding
    Продолжительность : 1 ч. 48 м.
    Битрейт : 3275 Кбит/сек
    Ширина : 1280 пикселей
    Высота : 536 пикселей
    Соотношение сторон : 2, 40: 1
    Режим частоты кадров : Постоянный
    Частота кадров : 23, 976 кадра/сек
    Цветовое пространство : YUV
    Субдискретизация насыщенности : 4: 2: 0
    Битовая глубина : 8 бит
    Тип развёртки : Прогрессивная
    Бит/(Пиксели*Кадры) : 0.199
    Размер потока : 2, 47 Гбайт (94%)
    Библиотека кодирования : x264 core 146 r2538M 121396c
    Настройки программы : cabac=1/ref=5/deblock=1: -1: -1/analyse=0x3: 0x133/me=umh/subme=8/psy=1/psy_rd=1, 00: 0, 15/mixed_ref=1/me_range=24/chroma_me=1/trellis=1/8x8dct=1/cqm=0/deadzone=21, 11/fast_pskip=1/chroma_qp_offset=-3/threads=24/lookahead_threads=4/sliced_threads=0/nr=0/decimate=1/interlaced=0/bluray_compat=0/constrained_intra=0/bframes=5/b_pyramid=1/b_adapt=2/b_bias=0/direct=3/weightb=1/open_gop=0/weightp=2/keyint=230/keyint_min=23/scenecut=40/intra_refresh=0/rc_lookahead=230/rc=2pass/mbtree=1/bitrate=3275/ratetol=1, 0/qcomp=0, 60/qpmin=10/qpmax=51/qpstep=4/cplxblur=20, 0/qblur=0, 5/ip_ratio=1, 40/aq=1: 1, 00
    Аудио
    Идентификатор : 2
    Формат : AAC
    Формат/Информация : Advanced Audio Codec
    Профиль формата : LC
    Идентификатор кодека : 40
    Продолжительность : 1 ч. 48 м.
    Вид битрейта : Постоянный
    Битрейт : 192 Кбит/сек
    Каналы : 2 канала
    Расположение каналов : Front: L R
    Частота : 48, 0 КГц
    Частота кадров : 46, 875 кадров/сек
    Метод сжатия : С потерями
    Размер потока : 149 Мбайт (6%)
    Язык : Russian
    Default : Да
    Скриншоты:




    Мультфильм Фердинанд/Ferdinand на NNM-CLUB
    Время раздачи: 24/7 (до появления первых 3-5 скачавших)


    Фердинанд/Ferdinand (2017) BDRip [H.264] [MP4|1280x536]
    Рейтинг →
     (голосов: 1, оценка 4/5, голосовать можно 1 раз )

    Другие торренты по теме:

  • Фердинанд / Ferdinand (2017) BDRip [H.264 / 1080p-LQ] [EN / EN Sub]
  • Фердинанд / Ferdinand (2017) BDRemux [H.264 / 1080p]
  • Фердинанд / Ferdinand (2017) BDRip [H.264 / 720p]
  • Фердинанд / Ferdinand (2017) Blu-ray [H.264 / 1080p]
  • Фердинанд / Ferdinand (2017) BDRip
  • Фердинанд / Ferdinand (2017) HDRip
  • Фердинанд / Ferdinand (2017) BDRip [H.264 / 1080p]
  • Фердинанд / Ferdinand (2017) UHD BDRemux [H.265 / 2160p] [4K, HDR, 10-bit]


    • Комментарии (0):

      Информация

      Информация

        Посетители, находящиеся в группе Гости, не могут оставлять комментарии в данной новости.

        ↓ Меню




        ↓ Опрос

        Вы добавили сайт в закладки?
        Да
        Нет


        Top 10 за месяц (КПК и мобильные)