.
Авторизация | Регистрация
Хочешь лучшие торренты? Добавь свой email!
Добавить

Торрент скачать бесплатно

» » Холостяк (Украина) (2018) WEB-DL [H.264] (сезон 8, выпуск 1-2 + Пост-Шоу) [MP4|720x576] (обновляемая) торрент скачать бесплатно


    Холостяк (Украина) (2018) WEB-DL [H.264] (сезон 8, выпуск 1-2 + Пост-Шоу) [MP4|720x576] (обновляемая) торрент скачать бесплатно

    Опубликовал: Админ | Дата: 19-03-2018, 05:01 | .torrent скачали: 1

    Холостяк (Украина) (2018) WEB-DL [H.264] (сезон 8, выпуск 1-2 + Пост-Шоу) [MP4|720x576] (обновляемая)Телекомпания: Украина, ПрАТ ММЦ-СТБ
    Жанр: ТВ-шоу, Телепередача, Юмор

    Описание

    Премьера нового сезона шоу Холостяк-8 выпуск 1 от 09.03.2018. Вы увидите, как 25 привлекательных девушек-участниц отправились на проект, чтобы изменить свою жизнь. Каждую из них ожидает встреча с главным героем проекта – Рожденом Ануси.
    У самого востребованного мужчины страны сейчас в жизни есть только одна девушка: Люблю музыку, обращаюсь к ней в минуты радости и волнения. Но скоро все изменится, ведь он пришел на проект, чтобы встретить ту единственную, которая очарует его сердце. Знакомьтесь с участницами шоу Холостяк-8 вместе с Рожденом Ануси. Девушек холостяк будет встречать лично. Для кого-то из девушек первый эфир станет последним. Розы достанутся не всем, а потому все участницы пытаются выделиться и запомниться уже с первой же встречи. Все они мечтают о любви, но выбирают разные способы ее добиться. Кто-то из них удивит нашего героя особенным подарком, а кто-то порадует ласковыми словами. Какая будет реакция Рождена Ануси на стих, который ему подготовила Марина, понравится ли ему картина, которую нарисовала Маша? Какой танец подготовила Иванна, чтобы заполучить розу, и что за сувенир привезла Настя из путешествия? Кто из девушек получит в подарок розу первого впечатления, а кто после первого же вечера отправится домой и не сможет участвовать дальше в шоу?
    Смотрите премьеру нового сезона шоу Холостяк-8 выпуск 1 от 09.03.2018, чтобы увидеть, как впервые знакомятся участницы шоу с холостяком, и как он радует участниц в ответ! Не пропустите!
    Продолжительность: 2-3 часа на выпуск
    Качество видео: WEB-DL
    Перевод: Русский (и иногда закадровые комментарии на украинском)
    Видео: AVC/H.264, 720x576 (1024x576), ~2740 kb/s
    Аудио: AAC, 2 ch, 384 kb/s

    General
    Complete name : ../Холостяк - Сезон 8 WEB-DL 576p/Холостяк - Сезон 8. Выпуск 2 от 16.03.2018.mp4
    Format : MPEG-4
    Format profile : Base Media
    Codec ID : isom (isom/iso2/avc1/mp41)
    File size : 2.88 GiB
    Duration : 2 h 11 min
    Overall bit rate mode : Variable
    Overall bit rate : 3 130 kb/s
    Collection : Холостяк
    Season : 8
    Album : Холостяк, Season 8
    Album/Performer : Холостяк
    Part : 2
    Track name/Position : 2
    Performer : Холостяк
    ContentType : TV Show
    Description : Холостяк 8 сезон выпуск 2 от 06.03.2018 уже в эфире телеканала СТБ! Rip by Ighor
    Recorded date : UTC 2018-03-16 11: 00: 00
    Tagged date : UTC 2018-03-16 21: 58: 20
    Writing application : Lavf57.83.100
    Cover : Yes
    LongDescription : Холостяк 8 сезон выпуск 2 от 06.03.2018...
    TVNetworkName : Украина, ПрАТ ММЦ-СТБ
    Video
    ID : 1
    Format : AVC
    Format/Info : Advanced Video Codec
    Format profile : High@L3
    Format settings : CABAC/2 Ref Frames
    Format settings, CABAC : Yes
    Format settings, ReFrames : 2 frames
    Format settings, GOP : M=3, N=30
    Codec ID : avc1
    Codec ID/Info : Advanced Video Coding
    Duration : 2 h 11 min
    Bit rate mode : Variable
    Bit rate : 2 740 kb/s
    Maximum bit rate : 3 000 kb/s
    Width : 720 pixels
    Height : 576 pixels
    Display aspect ratio : 16: 9
    Original display aspect ratio : 16: 9
    Frame rate mode : Constant
    Frame rate : 25.000 FPS
    Standard : PAL
    Color space : YUV
    Chroma subsampling : 4: 2: 0
    Bit depth : 8 bits
    Scan type : Interlaced
    Scan type, store method : Separated fields
    Scan order : Top Field First
    Bits/(Pixel*Frame) : 0.264
    Stream size : 2.52 GiB (88%)
    Language : English
    Audio
    ID : 2
    Format : AAC
    Format/Info : Advanced Audio Codec
    Format profile : LC
    Codec ID : mp4a-40-2
    Duration : 2 h 11 min
    Bit rate mode : Constant
    Bit rate : 384 kb/s
    Channel(s) : 2 channels
    Channel positions : Front: L R
    Sampling rate : 48.0 kHz
    Frame rate : 46.875 FPS (1024 SPF)
    Compression mode : Lossy
    Stream size : 362 MiB (12%)
    Language : English
    Default : Yes
    Alternate group : 1


    Холостяк (Украина) (2018) WEB-DL [H.264] (сезон 8, выпуск 1-2 + Пост-Шоу) [MP4|720x576] (обновляемая)
    Рейтинг →
     (голосов: 1, оценка 4/5, голосовать можно 1 раз )

    Другие торренты по теме:

  • Холостяк (Украина) (2017.03.17) SATRip (сезон 7, выпуск 2 + пост шоу)
  • Холостяк (Украина) (2017.03.24) SATRip (сезон 7, выпуск 3 + пост шоу)
  • Холостяк (Украина) (2017.03.31) SATRip (7 сезон, 4 выпуск + Пост шоу)
  • Холостяк (Украина) (2017.04.07) SATRip (сезон 7, выпуск 5 + Пост шоу)
  • Холостяк (Украина) (2017.04.14) SATRip (7 сезон, 6 выпуск + Пост шоу)
  • Холостяк (Украина) (2017.04.21) SATRip (сезон 7, выпуск 7 + Пост шоу)
  • Холостяк (Украина) (2017.03.28) SATRip [H.264] (7 сезон, 8 выпуск + Пост шоу)
  • Холостяк (Украина) (2017.05.05) SATRip (7 сезон, 9 выпуск + Пост шоу)


    • Комментарии (0):

      Информация

      Информация

        Посетители, находящиеся в группе Гости, не могут оставлять комментарии в данной новости.

        ↓ Меню




        ↓ Опрос

        Вы добавили сайт в закладки?
        Да
        Нет


        Top 10 за месяц (КПК и мобильные)