.
Авторизация | Регистрация
Хочешь лучшие торренты? Добавь свой email!
Добавить

Торрент скачать бесплатно

» » РЭД / RED (2010) HDRip [H.264] [MP4|1280x534] торрент скачать бесплатно


    РЭД / RED (2010) HDRip [H.264] [MP4|1280x534] торрент скачать бесплатно

    Опубликовал: Админ | Дата: 17-03-2018, 05:00 | .torrent скачали: 0

    РЭД / RED (2010) HDRip [H.264] [MP4|1280x534]Производство: США
    Жанр: Боевик, Триллер, Комедия, Криминал
    Режиссер: Роберт Швентке
    Продюсер: Лоренцо Ди Бонавентура, Марк Вахрадян, Джэйк Майерс
    Актеры: Брюс Уиллис, Джон Малкович, Морган Фриман, Хелен Миррен, Мэри-Луиз Паркер, Карл Урбан, Брайан Кокс, Ричард Дрейфусс, Ребекка Пиджон, Крис Оуенс

    Описание

    Фрэнк Мозес, экс-агент супергруппы ЦРУ, живет теперь мирной и тихой жизнью. Но прошлое настигает его: как-то утром загадочный киллер пытается лишить его жизни. Опытный Фрэнк, конечно, сумел увернуться от пули, но сразу понял, что дело табак. Кто же поможет справиться с командой ликвидаторов? Конечно, бывшие напарники: харизматичный Джо Мэтисон и параноик Марвин Боггс. Прекрасный повод тряхнуть стариной!

    Возраст: 12+ (зрителям, достигшим 12 лет)
    Рейтинг MPAA: PG-13 (детям до 13 лет просмотр нежелателен)
    Дата мировой премьеры: 29 сентября 2010
    Дата российской премьеры: 14 октября 2010
    Продолжительность: 01: 51: 09
    Качество видео: HDRip
    Перевод: Дублированный (Лицензия)
    Субтитры: Русские (полные), Английские (полные)
    Видео: AVC/H.264, 1280x534, ~1167 Kbps
    Аудио: AAC, 2 ch, ~129 Kbps

    Общее
    Полное имя : E: Download1РЭД 2010 720p.mp4
    Формат : MPEG-4
    Профиль формата : Base Media
    Идентификатор кодека : isom (isom/avc1)
    Размер файла : 1, 01 Гбайт
    Продолжительность : 1 ч. 51 м.
    Режим общего битрейта : Переменный
    Общий поток : 1298 Кбит/сек
    Дата кодирования : UTC 2018-03-15 15: 13: 42
    Дата пометки : UTC 2018-03-15 15: 13: 42
    Видео
    Идентификатор : 1
    Формат : AVC
    Формат/Информация : Advanced Video Codec
    Профиль формата : High@L3.1
    Настройки формата : CABAC/1 Ref Frames
    Параметр CABAC формата : Да
    Параметр RefFrames формата : 1 кадр
    Параметр GOP формата : M=1, N=60
    Идентификатор кодека : avc1
    Идентификатор кодека/Информация : Advanced Video Coding
    Продолжительность : 1 ч. 51 м.
    Битрейт : 1167 Кбит/сек
    Максимальный битрейт : 7128 Кбит/сек
    Ширина : 1280 пикселей
    Высота : 534 пикселя
    Соотношение сторон : 2, 40: 1
    Режим частоты кадров : Постоянный
    Частота кадров : 23, 976 (24000/1001) кадра/сек
    Цветовое пространство : YUV
    Субдискретизация насыщенности : 4: 2: 0
    Битовая глубина : 8 бит
    Тип развёртки : Прогрессивная
    Бит/(Пиксели*Кадры) : 0.071
    Размер потока : 928 Мбайт (90%)
    Дата кодирования : UTC 2018-03-15 15: 13: 42
    Дата пометки : UTC 2018-03-15 15: 15: 10
    Цветовой диапазон : Limited
    Основные цвета : BT.709
    Характеристики трансфера : BT.709
    Коэффициенты матрицы : BT.709
    Аудио
    Идентификатор : 2
    Формат : AAC
    Формат/Информация : Advanced Audio Codec
    Профиль формата : LC
    Идентификатор кодека : mp4a-40-2
    Продолжительность : 1 ч. 51 м.
    Вид битрейта : Переменный
    Битрейт : 129 Кбит/сек
    Максимальный битрейт : 134 Кбит/сек
    Каналы : 2 канала
    Расположение каналов : Front: L R
    Частота : 48, 0 КГц
    Частота кадров : 46, 875 кадров/сек (1024 SPF)
    Метод сжатия : С потерями
    Размер потока : 102 Мбайт (10%)
    Заголовок : Дублированный (Лицензия)
    Язык : Russian
    Дата кодирования : UTC 2018-03-15 15: 14: 54
    Дата пометки : UTC 2018-03-15 15: 15: 10
    Текст #1
    Идентификатор : 3
    Формат : Timed Text
    Идентификатор кодека : tx3g
    Продолжительность : 1 ч. 44 м.
    Вид битрейта : Переменный
    Битрейт : 84 бит/сек
    Размер потока : 64, 7 Кбайт (0%)
    Заголовок : Full
    Язык : Russian
    Forced : Нет
    Дата кодирования : UTC 2018-03-15 15: 15: 10
    Дата пометки : UTC 2018-03-15 15: 15: 10
    Текст #2
    Идентификатор : 4
    Формат : Timed Text
    Идентификатор кодека : tx3g
    Продолжительность : 1 ч. 44 м.
    Вид битрейта : Переменный
    Битрейт : 56 бит/сек
    Размер потока : 42, 7 Кбайт (0%)
    Заголовок : Full
    Язык : English
    Forced : Нет
    Дата кодирования : UTC 2018-03-15 15: 15: 10
    Дата пометки : UTC 2018-03-15 15: 15: 10
    Скриншоты:


    Все одноименные релизы в Клубе
    Время раздачи: с 9: 00 до 21: 00 (до появления первых 3-5 скачавших)


    РЭД/RED (2010) HDRip [H.264] [MP4|1280x534]
    Рейтинг →
     (голосов: 1, оценка 3/5, голосовать можно 1 раз )

    Другие торренты по теме:

  • Ron Howard | Рон Ховард учит режиссуре / Ron Howard Teaches Directing (2018) HDRip [H.264] [EN]
  • Мёртвые, проклятые и тьма / The Dead the Damned and the Darkness (2014) HDRip [VO]HDRip скачать через торрент бесплатно
  • Опасный Джек / Ужас в больнице / Hazard Jack (2014) HDRip [VO]
  • Плохие слова / Bad Words (2013) HDRip [Line]
  • Город грехов 2: Женщина, ради которой стоит убивать / Sin City: A Dame to Kill For (2014) HDRip
  • Черный дождь / Black Rain (1989) HDRip
  • Безумная свадьба / Quest-ce quon a fait au Bon Dieu (2014) HDRip [Line]
  • Куми-Куми / Qumi-Qumi (2012) HDRip [1080p] (Сезон 1, Серии 1-13 из 52) (Обновляемая)


    • Комментарии (0):

      Информация

      Информация

        Посетители, находящиеся в группе Гости, не могут оставлять комментарии в данной новости.

        ↓ Меню




        ↓ Опрос

        Вы добавили сайт в закладки?
        Да
        Нет


        Top 10 за месяц (КПК и мобильные)