.
Авторизация | Регистрация
Хочешь лучшие торренты? Добавь свой email!
Добавить

Торрент скачать бесплатно

» » Спецназ города ангелов / S.W.A.T. (2017) WEBRip [H.264] (сезон 1, серии 1-14 из 17) BaibaKo [MP4|720x400] [AD] (обновляемая) торрент скачать бесплатно


    Спецназ города ангелов / S.W.A.T. (2017) WEBRip [H.264] (сезон 1, серии 1-14 из 17) BaibaKo [MP4|720x400] [AD] (обновляемая) торрент скачать бесплатно

    Опубликовал: Админ | Дата: 17-03-2018, 05:00 | .torrent скачали: 0

    Спецназ города ангелов / S.W.A.T. (2017) WEBRip [H.264] (сезон 1, серии 1-14 из 17) BaibaKo [MP4|720x400] [AD] (обновляемая)Производство: США
    Жанр: боевик, триллер, драма, криминал, приключения
    Режиссер: Билл Джирхарт, Эгил Эгилссон, Джастин Лин
    Актеры: Шемар Мур, Кенни Джонсон, Дэвид Лим, Стефани Сигман, Патрик Ст. Эсприт, Аарон Бледсо, Лина Эско, Луис Ферриньо мл., Джей Хэррингтон, Джим Гэррити и др.

    Описание

    Лейтенанту полицейского спецназа Даниэлю Харрельсону поручают возглавить отряд вышколенных профессионалов с крутым нравом и отсутствием щепетильности при выполнении заданий. Эта команда — последняя надежда городских властей на восстановление правопорядка в Лос-Анджелесе...

    Дата мировой премьеры: 02 ноября 2017
    Продолжительность: ~00: 43: 00 серия
    Качество видео: WEBRip
    Перевод: Многоголосый закадровый, профессиональный -BaibaKo
    Реклама: присутствуют голосовые и текстовые вставки
    Видео: AVC/H.264, 720x400 (16: 9), ~1436 kbps
    Аудио: MP3, 2 ch, 160 kbps - русский (MVO)

    Полное имя : L: S.W.A.T._s1_WEBRip_x264_BaibaKo_NNM-CLUBS.W.A.T.s01e02.WEBRip.x264.BaibaKo.mp4
    Формат : MPEG-4
    Профиль формата : Base Media
    Идентификатор кодека : isom (isom/iso2/avc1/mp41)
    Размер файла : 500 Мбайт
    Продолжительность : 43 м.
    Общий поток : 1600 Кбит/сек
    Программа кодирования : XviD4PSP 7.0.129
    Видео
    Идентификатор : 1
    Формат : AVC
    Формат/Информация : Advanced Video Codec
    Профиль формата : Main@L3
    Параметр CABAC формата : Нет
    Параметр ReFrames формата : 3 кадра
    Идентификатор кодека : avc1
    Идентификатор кодека/Информация : Advanced Video Coding
    Продолжительность : 43 м.
    Битрейт : 1436 Кбит/сек
    Ширина : 720 пикселей
    Высота : 400 пикселей
    Соотношение сторон : 16: 9
    Режим частоты кадров : Постоянный
    Частота кадров : 23, 976 кадра/сек
    Цветовое пространство : YUV
    Субдискретизация насыщенности : 4: 2: 0
    Битовая глубина : 8 бит
    Тип развёртки : Прогрессивная
    Бит/(Пиксели*Кадры) : 0.208
    Размер потока : 449 Мбайт (90%)
    Библиотека кодирования : x264 core 146 r2538M 121396c
    Настройки программы : cabac=0/ref=3/deblock=1: 0: 0/analyse=0x1: 0x131/me=hex/subme=7/psy=1/psy_rd=1, 00: 0, 20/mixed_ref=1/me_range=16/chroma_me=1/trellis=1/8x8dct=0/cqm=0/deadzone=21, 11/fast_pskip=1/chroma_qp_offset=-3/threads=24/lookahead_threads=3/sliced_threads=0/nr=0/decimate=1/interlaced=0/bluray_compat=0/constrained_intra=0/bframes=0/weightp=2/keyint=230/keyint_min=23/scenecut=0/intra_refresh=0/rc_lookahead=230/rc=2pass/mbtree=1/bitrate=1436/ratetol=1, 0/qcomp=0, 60/qpmin=10/qpmax=51/qpstep=4/cplxblur=20, 0/qblur=0, 5/ip_ratio=1, 40/aq=1: 1, 00
    Цветовой диапазон : Limited
    Основные цвета : BT.709
    Характеристики трансфера : BT.709
    Коэффициенты матрицы : BT.709
    Аудио
    Идентификатор : 2
    Формат : MPEG Audio
    Версия формата : Version 1
    Профиль формата : Layer 3
    Режим : Joint stereo
    Расширение режима : MS Stereo
    Идентификатор кодека : 6B
    Продолжительность : 43 м.
    Вид битрейта : Постоянный
    Битрейт : 160 Кбит/сек
    Каналы : 2 канала
    Частота : 48, 0 КГц
    Метод сжатия : С потерями
    Размер потока : 50, 0 Мбайт (10%)
    Библиотека кодирования : LAME3.99.5
    Язык : Russian
    Default : Да
    Alternate group : 1


    Спецназ города ангелов/S.W.A.T. (2017) WEBRip [H.264] (сезон 1, серии 1-14 из 17) BaibaKo [MP4|720x400] [AD] (обновляемая)
    Рейтинг →
     (голосов: 1, оценка 4/5, голосовать можно 1 раз )

    Другие торренты по теме:

  • Спецназ города ангелов / S.W.A.T. (2017) WEBRip [H.264 / 720p-LQ] (сезон 1, серии 1-8 из 12) BaibaKo (обновляемая) [AD]


    • Комментарии (0):

      Информация

      Информация

        Посетители, находящиеся в группе Гости, не могут оставлять комментарии в данной новости.

        ↓ Меню




        ↓ Опрос

        Вы добавили сайт в закладки?
        Да
        Нет


        Top 10 за месяц (КПК и мобильные)