.
Авторизация | Регистрация
Хочешь лучшие торренты? Добавь свой email!
Добавить

Торрент скачать бесплатно

» » Бешеные псы / Reservoir Dogs (1992) HDRip [H.264] [MP4|1280x544] торрент скачать бесплатно


    Бешеные псы / Reservoir Dogs (1992) HDRip [H.264] [MP4|1280x544] торрент скачать бесплатно

    Опубликовал: Админ | Дата: 16-03-2018, 05:00 | .torrent скачали: 1

    Бешеные псы / Reservoir Dogs (1992) HDRip [H.264] [MP4|1280x544]Производство: США
    Жанр: Триллер, Драма, Криминал
    Режиссер: Квентин Тарантино
    Продюсер: Лоуренс Бендер, Ричард Н. Гладштейн, Монте Хеллман
    Актеры: Харви Кейтель, Тим Рот, Майкл Мэдсен, Крис Пенн, Стив Бушеми, Лоуренс Тирни, Рэнди Брукс, Кирк Балц, Эдвард Банкер, Квентин Тарантино, Стивен Райт, Рич Тернер, Дэвид Стин, Тони Космо, Стево Полы, Michael Sottile, Роберт Рут, Лоуренс Бендер, Линда Кэй, Сюзанн Селеста, Лори Лэтэм

    Описание

    Это должно было стать идеальным преступлением. Задумав ограбить ювелирный магазин, криминальный босс Джо Кэбот собрал вместе шестерых опытных и совершенно незнакомых друг с другом преступников. Но с самого начала все пошло не так, и обычный грабеж превратился в кровавую бойню.

    Возраст: 18+ (зрителям, достигшим 18 лет. запрещено для детей)
    Рейтинг MPAA: R (лицам до 17 лет обязательно присутствие взрослого)
    Дата мировой премьеры: 21 января 1992
    Продолжительность: 01: 39: 17
    Качество видео: HDRip
    Перевод: Одноголосый закадровый, авторский (Дмитрий Пучков) (ненормативная лексика)
    Субтитры: Отсутствуют
    Видео: AVC/H.264, 1280x544, ~975 Kbps
    Аудио: AAC, 2 ch, ~129 Kbps

    Общее
    Полное имя : E: Download1Бешеные псы 1992 720p.mp4
    Формат : MPEG-4
    Профиль формата : Base Media
    Идентификатор кодека : isom (isom/avc1)
    Размер файла : 786 Мбайт
    Продолжительность : 1 ч. 39 м.
    Режим общего битрейта : Переменный
    Общий поток : 1106 Кбит/сек
    Дата кодирования : UTC 2018-03-01 08: 14: 38
    Дата пометки : UTC 2018-03-01 08: 14: 38
    Видео
    Идентификатор : 1
    Формат : AVC
    Формат/Информация : Advanced Video Codec
    Профиль формата : High@L3.1
    Настройки формата : CABAC/1 Ref Frames
    Параметр CABAC формата : Да
    Параметр RefFrames формата : 1 кадр
    Идентификатор кодека : avc1
    Идентификатор кодека/Информация : Advanced Video Coding
    Продолжительность : 1 ч. 39 м.
    Битрейт : 975 Кбит/сек
    Максимальный битрейт : 4309 Кбит/сек
    Ширина : 1280 пикселей
    Высота : 544 пикселя
    Соотношение сторон : 2, 35: 1
    Режим частоты кадров : Постоянный
    Частота кадров : 23, 976 (24000/1001) кадра/сек
    Цветовое пространство : YUV
    Субдискретизация насыщенности : 4: 2: 0
    Битовая глубина : 8 бит
    Тип развёртки : Прогрессивная
    Бит/(Пиксели*Кадры) : 0.058
    Размер потока : 692 Мбайт (88%)
    Дата кодирования : UTC 2018-03-01 08: 14: 38
    Дата пометки : UTC 2018-03-01 08: 15: 23
    Цветовой диапазон : Limited
    Основные цвета : BT.709
    Характеристики трансфера : BT.709
    Коэффициенты матрицы : BT.709
    Аудио
    Идентификатор : 2
    Формат : AAC
    Формат/Информация : Advanced Audio Codec
    Профиль формата : LC
    Идентификатор кодека : mp4a-40-2
    Продолжительность : 1 ч. 39 м.
    Вид битрейта : Переменный
    Битрейт : 129 Кбит/сек
    Максимальный битрейт : 133 Кбит/сек
    Каналы : 2 канала
    Расположение каналов : Front: L R
    Частота : 48, 0 КГц
    Частота кадров : 46, 875 кадров/сек (1024 SPF)
    Метод сжатия : С потерями
    Размер потока : 91, 4 Мбайт (12%)
    Заголовок : Одноголосый закадровый, авторский (Дмитрий Пучков) (ненормативная лексика)
    Язык : Russian
    Дата кодирования : UTC 2018-03-01 08: 15: 13
    Дата пометки : UTC 2018-03-01 08: 15: 23
    Скриншоты:


    Все одноименные релизы в Клубе
    Время раздачи: с 9: 00 до 21: 00 (до появления первых 3-5 скачавших)


    Бешеные псы/Reservoir Dogs (1992) HDRip [H.264] [MP4|1280x544]
    Рейтинг →
     (голосов: 1, оценка 5/5, голосовать можно 1 раз )

    Другие торренты по теме:

  • Бешеные псы (Reservoir Dogs) (1992) [MP4 | 1024x438] <BDRip H.264>
  • Бешеные псы / Reservoir Dogs (1992) DVD9
  • Бешеные кошки / Reservoir Cats (2011) WEB-DLRip скачать через торрент бесплатно
  • Бешеные псы / Reservoir Dogs (1992) BDRip [H.264 / 1080p]
  • Бешеные Псы / Reservoir Dogs (1991) BDRip [H.265 / 1080p-LQ] [MVO]
  • Бешеные псы / Reservoir Dogs (1992) HDRip [H.264] [MP4|1920x816]


    • Комментарии (0):

      Информация

      Информация

        Посетители, находящиеся в группе Гости, не могут оставлять комментарии в данной новости.

        ↓ Меню




        ↓ Опрос

        Вы добавили сайт в закладки?
        Да
        Нет


        Top 10 за месяц (КПК и мобильные)