.
Авторизация | Регистрация
Хочешь лучшие торренты? Добавь свой email!
Добавить

Торрент скачать бесплатно

» » Бешеные псы / Reservoir Dogs (1992) HDRip [H.264] [MP4|1920x816] торрент скачать бесплатно


    Бешеные псы / Reservoir Dogs (1992) HDRip [H.264] [MP4|1920x816] торрент скачать бесплатно

    Опубликовал: Админ | Дата: 16-03-2018, 05:00 | .torrent скачали: 1

    Бешеные псы / Reservoir Dogs (1992) HDRip [H.264] [MP4|1920x816]Производство: США
    Жанр: Триллер, Драма, Криминал
    Режиссер: Квентин Тарантино
    Продюсер: Лоуренс Бендер, Ричард Н. Гладштейн, Монте Хеллман
    Актеры: Харви Кейтель, Тим Рот, Майкл Мэдсен, Крис Пенн, Стив Бушеми, Лоуренс Тирни, Рэнди Брукс, Кирк Балц, Эдвард Банкер, Квентин Тарантино, Стивен Райт, Рич Тернер, Дэвид Стин, Тони Космо, Стево Полы, Michael Sottile, Роберт Рут, Лоуренс Бендер, Линда Кэй, Сюзанн Селеста, Лори Лэтэм

    Описание

    Это должно было стать идеальным преступлением. Задумав ограбить ювелирный магазин, криминальный босс Джо Кэбот собрал вместе шестерых опытных и совершенно незнакомых друг с другом преступников. Но с самого начала все пошло не так, и обычный грабеж превратился в кровавую бойню.

    Возраст: 18+ (зрителям, достигшим 18 лет. запрещено для детей)
    Рейтинг MPAA: R (лицам до 17 лет обязательно присутствие взрослого)
    Дата мировой премьеры: 21 января 1992
    Продолжительность: 01: 39: 17
    Качество видео: HDRip
    Перевод: Одноголосый закадровый, авторский (Дмитрий Пучков) (ненормативная лексика)
    Субтитры: Отсутствуют
    Видео: AVC/H.264, 1920x816, ~1575 Kbps
    Аудио: AC3, 6 ch, 384 Kbps

    Общее
    Полное имя : E: Download1Бешеные псы 1992 1080p.mp4
    Формат : MPEG-4
    Профиль формата : Base Media
    Идентификатор кодека : isom (isom/avc1/iso6)
    Размер файла : 1, 36 Гбайт
    Продолжительность : 1 ч. 39 м.
    Общий поток : 1961 Кбит/сек
    Дата кодирования : UTC 2018-03-01 08: 39: 37
    Дата пометки : UTC 2018-03-01 08: 39: 37
    Видео
    Идентификатор : 1
    Формат : AVC
    Формат/Информация : Advanced Video Codec
    Профиль формата : High@L4
    Настройки формата : CABAC/2 Ref Frames
    Параметр CABAC формата : Да
    Параметр RefFrames формата : 2 кадра
    Идентификатор кодека : avc1
    Идентификатор кодека/Информация : Advanced Video Coding
    Продолжительность : 1 ч. 39 м.
    Битрейт : 1575 Кбит/сек
    Максимальный битрейт : 6121 Кбит/сек
    Ширина : 1920 пикселей
    Высота : 816 пикселей
    Соотношение сторон : 2, 35: 1
    Режим частоты кадров : Постоянный
    Частота кадров : 23, 976 (24000/1001) кадра/сек
    Цветовое пространство : YUV
    Субдискретизация насыщенности : 4: 2: 0
    Битовая глубина : 8 бит
    Тип развёртки : Прогрессивная
    Бит/(Пиксели*Кадры) : 0.042
    Размер потока : 1, 09 Гбайт (80%)
    Дата кодирования : UTC 2018-03-01 08: 39: 37
    Дата пометки : UTC 2018-03-01 08: 41: 42
    Цветовой диапазон : Limited
    Основные цвета : BT.709
    Характеристики трансфера : BT.709
    Коэффициенты матрицы : BT.709
    Аудио
    Идентификатор : 2
    Формат : AC-3
    Формат/Информация : Audio Coding 3
    Параметр Endianness формата : Big
    Идентификатор кодека : ac-3
    Продолжительность : 1 ч. 39 м.
    Вид битрейта : Постоянный
    Битрейт : 384 Кбит/сек
    Максимальный битрейт : 406 Кбит/сек
    Каналы : 6 каналов
    Расположение каналов : Front: L C R, Side: L R, LFE
    Частота : 48, 0 КГц
    Частота кадров : 31, 250 кадров/сек (1536 SPF)
    Битовая глубина : 16 бит
    Метод сжатия : С потерями
    Размер потока : 273 Мбайт (20%)
    Заголовок : Одноголосый закадровый, авторский (Дмитрий Пучков) (ненормативная лексика)
    Язык : Russian
    ServiceKind/String : Complete Main
    Дата кодирования : UTC 2018-03-01 08: 41: 20
    Дата пометки : UTC 2018-03-01 08: 41: 42
    Скриншоты:


    Все одноименные релизы в Клубе
    Время раздачи: с 9: 00 до 21: 00 (до появления первых 3-5 скачавших)


    Бешеные псы/Reservoir Dogs (1992) HDRip [H.264] [MP4|1920x816]
    Рейтинг →
     (голосов: 1, оценка 4/5, голосовать можно 1 раз )

    Другие торренты по теме:

  • Бешеные псы (Reservoir Dogs) (1992) [MP4 | 1024x438] <BDRip H.264>
  • Бешеные псы / Reservoir Dogs (1992) DVD9
  • Бешеные кошки / Reservoir Cats (2011) WEB-DLRip скачать через торрент бесплатно
  • Бешеные псы / Reservoir Dogs (1992) BDRip [H.264 / 1080p]
  • Бешеные Псы / Reservoir Dogs (1991) BDRip [H.265 / 1080p-LQ] [MVO]
  • Бешеные псы / Reservoir Dogs (1992) HDRip [H.264] [MP4|1280x544]


    • Комментарии (0):

      Информация

      Информация

        Посетители, находящиеся в группе Гости, не могут оставлять комментарии в данной новости.

        ↓ Меню




        ↓ Опрос

        Вы добавили сайт в закладки?
        Да
        Нет


        Top 10 за месяц (КПК и мобильные)