.
Авторизация | Регистрация
Хочешь лучшие торренты? Добавь свой email!
Добавить

Торрент скачать бесплатно

» » Братья-сёстры, соперники-соперницы / Sibling Rivalry (1990) HDTV [H.264] [MP4|1920x1080] торрент скачать бесплатно


    Братья-сёстры, соперники-соперницы / Sibling Rivalry (1990) HDTV [H.264] [MP4|1920x1080] торрент скачать бесплатно

    Опубликовал: Админ | Дата: 14-03-2018, 05:00 | .torrent скачали: 1

    Братья-сёстры, соперники-соперницы / Sibling Rivalry (1990) HDTV [H.264] [MP4|1920x1080]Производство: США, Metro-Goldwyn-Mayer
    Жанр: Комедия, Мелодрама
    Режиссер: Карл Рейнер
    Продюсер: Лиз Глотцер, Дэвид Лестер, Дон Миллер
    Актеры: Кёрсти Элли, Билл Пуллман, Джейми Герц, Скотт Бакула, Кэрри Фишер, Эд О\'Нилл, Сэм Эллиотт, Фрэнсис Стернхаген, Джон Рэндольф

    Описание

    Марджори, молодая женщина недавно вышедшая замуж за Гарри Тарнера, потомственного врача, но уже несчастливая в браке, следует совету сестры и знакомится с красивым мужчиной, который оказывается к тому же и страстным любовником. Но чересчур уж страстным, во время бурной ночи с Марджори в гостиничном номере он умирает от сердечного приступа. Молодая женщина в затруднении — что же ей делать? Но она и не догадывается что умерший любовник - брат её мужа...

    Возраст: 16+ (зрителям, достигшим 16 лет)
    Рейтинг MPAA: PG-13 (детям до 13 лет просмотр нежелателен)
    Релиз от: Koitus
    Продолжительность: 01: 24: 12
    Качество видео: HDTV
    Перевод: Двуголосый закадровый
    Субтитры: Отсутствуют
    Видео: AVC/H.264, 1920x1080, ~6943 Kbps
    Аудио: AAC, 2 ch, 128Kbps

    General
    Complete name : \KEENETIC_ULTRAStorageShareSibling RivarlySibling Rivalry.mp4
    Format : MPEG-4
    Format profile : Base Media/Version 2
    Codec ID : mp42 (ndhd/avc1/mp42/isom)
    File size : 4.16 GiB
    Duration : 1 h 24 min
    Overall bit rate mode : Variable
    Overall bit rate : 7 074 kb/s
    Encoded date : UTC 2018-03-12 14: 07: 24
    Tagged date : UTC 2018-03-12 18: 25: 27
    Video
    ID : 1
    Format : AVC
    Format/Info : Advanced Video Codec
    Format profile : Baseline@L4
    Format settings : 1 Ref Frames
    Format settings, CABAC : No
    Format settings, ReFrames : 1 frame
    Codec ID : avc1
    Codec ID/Info : Advanced Video Coding
    Duration : 1 h 24 min
    Bit rate : 6 943 kb/s
    Maximum bit rate : 22.6 Mb/s
    Width : 1 920 pixels
    Height : 1 080 pixels
    Display aspect ratio : 16: 9
    Frame rate mode : Constant
    Frame rate : 25.000 FPS
    Color space : YUV
    Chroma subsampling : 4: 2: 0
    Bit depth : 8 bits
    Scan type : Progressive
    Bits/(Pixel*Frame) : 0.134
    Stream size : 4.08 GiB (98%)
    Language : English
    Encoded date : UTC 2018-03-12 14: 07: 24
    Tagged date : UTC 2018-03-12 18: 25: 27
    Audio
    ID : 2
    Format : AAC
    Format/Info : Advanced Audio Codec
    Format profile : LC
    Codec ID : mp4a-40-2
    Duration : 1 h 24 min
    Bit rate mode : Variable
    Bit rate : 128 kb/s
    Maximum bit rate : 168 kb/s
    Channel(s) : 2 channels
    Channel positions : Front: L R
    Sampling rate : 48.0 kHz
    Frame rate : 46.875 FPS (1024 SPF)
    Compression mode : Lossy
    Stream size : 77.1 MiB (2%)
    Language : English
    Encoded date : UTC 2018-03-12 14: 07: 24
    Tagged date : UTC 2018-03-12 18: 25: 27
    Скриншоты:


    Все одноименные релизы в Клубе
    Время раздачи: 24/7 (круглосуточно) до появления первых 3-5 скачавших (до появления первых 3-5 скачавших)


    Братья-сёстры, соперники-соперницы/Sibling Rivalry (1990) HDTV [H.264] [MP4|1920x1080]
    Рейтинг →
     (голосов: 1, оценка 4/5, голосовать можно 1 раз )

    Другие торренты по теме:



      Комментарии (0):

      Информация

      Информация

        Посетители, находящиеся в группе Гости, не могут оставлять комментарии в данной новости.

        ↓ Меню




        ↓ Опрос

        Вы добавили сайт в закладки?
        Да
        Нет


        Top 10 за месяц (КПК и мобильные)