.
Авторизация | Регистрация
Хочешь лучшие торренты? Добавь свой email!
Добавить

Торрент скачать бесплатно

» » Мстители / The Avengers (2012) BDRip [H.264] [MP4|1280x720] торрент скачать бесплатно

    Мстители / The Avengers (2012) BDRip [H.264] [MP4|1280x720] торрент скачать бесплатно

    Опубликовал: Админ | Дата: 13-03-2018, 05:00 | .torrent скачали: 0

    Мстители / The Avengers (2012) BDRip [H.264] [MP4|1280x720]Производство: США
    Жанр: Фантастика, Фэнтези, Боевик, Приключения
    Режиссер: Джосс Уидон
    Продюсер: Кевин Файги, Виктория Алонсо, Луис Д’Эспозито
    Актеры: Роберт Дауни мл., Крис Эванс, Марк Руффало, Крис Хемсворт, Скарлетт Йоханссон, Джереми Реннер, Том Хиддлстон, Сэмюэл Л. Джексон, Кларк Грегг, Коби Смолдерс

    Описание

    Локи, сводный брат Тора, возвращается, и в этот раз он не один. Земля на грани порабощения, и только лучшие из лучших могут спасти человечество.
    Ник Фьюри, глава международной организации Щ. И. Т., собирает выдающихся поборников справедливости и добра, чтобы отразить атаку. Под предводительством Капитана Америки Железный Человек, Тор, Невероятный Халк, Соколиный глаз и Чёрная Вдова вступают в войну с захватчиком.

    Возраст: 12+ (зрителям, достигшим 12 лет)
    Рейтинг MPAA: PG-13 (детям до 13 лет просмотр нежелателен)
    Дата мировой премьеры: 11 апреля 2012
    Дата российской премьеры: 3 мая 2012
    Продолжительность: 02: 22: 55
    Качество видео: BDRip
    Перевод: Дублированный (Лицензия)
    Субтитры: Русские (форсированные, полные), Английские (форсированные, полные)
    Видео: AVC/H.264, 1280x720, ~1581 Kbps
    Аудио: AAC, 2 ch, ~128 Kbps

    Общее
    Полное имя : E: Download1Мстители 2012 720p.mp4
    Формат : MPEG-4
    Профиль формата : Base Media
    Идентификатор кодека : isom (isom/avc1)
    Размер файла : 1, 71 Гбайт
    Продолжительность : 2 ч. 22 м.
    Режим общего битрейта : Переменный
    Общий поток : 1712 Кбит/сек
    Дата кодирования : UTC 2018-02-13 15: 01: 43
    Дата пометки : UTC 2018-02-13 15: 01: 43
    Видео
    Идентификатор : 1
    Формат : AVC
    Формат/Информация : Advanced Video Codec
    Профиль формата : High@L3.1
    Настройки формата : CABAC/1 Ref Frames
    Параметр CABAC формата : Да
    Параметр RefFrames формата : 1 кадр
    Идентификатор кодека : avc1
    Идентификатор кодека/Информация : Advanced Video Coding
    Продолжительность : 2 ч. 22 м.
    Битрейт : 1581 Кбит/сек
    Максимальный битрейт : 7854 Кбит/сек
    Ширина : 1280 пикселей
    Высота : 720 пикселей
    Соотношение сторон : 16: 9
    Режим частоты кадров : Постоянный
    Частота кадров : 23, 976 (24000/1001) кадра/сек
    Цветовое пространство : YUV
    Субдискретизация насыщенности : 4: 2: 0
    Битовая глубина : 8 бит
    Тип развёртки : Прогрессивная
    Бит/(Пиксели*Кадры) : 0.072
    Размер потока : 1, 58 Гбайт (92%)
    Дата кодирования : UTC 2018-02-13 15: 01: 43
    Дата пометки : UTC 2018-02-13 15: 04: 00
    Цветовой диапазон : Limited
    Основные цвета : BT.709
    Характеристики трансфера : BT.709
    Коэффициенты матрицы : BT.709
    Аудио
    Идентификатор : 2
    Формат : AAC
    Формат/Информация : Advanced Audio Codec
    Профиль формата : LC
    Идентификатор кодека : mp4a-40-2
    Продолжительность : 2 ч. 22 м.
    Вид битрейта : Переменный
    Битрейт : 128 Кбит/сек
    Максимальный битрейт : 140 Кбит/сек
    Каналы : 2 канала
    Расположение каналов : Front: L R
    Частота : 48, 0 КГц
    Частота кадров : 46, 875 кадров/сек (1024 SPF)
    Метод сжатия : С потерями
    Размер потока : 131 Мбайт (7%)
    Заголовок : Дублированный (Лицензия)
    Язык : Russian
    Дата кодирования : UTC 2018-02-13 15: 03: 41
    Дата пометки : UTC 2018-02-13 15: 04: 00
    Текст #1
    Идентификатор : 3
    Формат : Timed Text
    Идентификатор кодека : tx3g
    Продолжительность : 2 ч. 6 м.
    Вид битрейта : Переменный
    Битрейт : 1 бит/сек
    Размер потока : 942 байт (0%)
    Заголовок : Forced
    Язык : Russian
    Forced : Нет
    Дата кодирования : UTC 2018-02-13 15: 03: 59
    Дата пометки : UTC 2018-02-13 15: 04: 00
    Текст #2
    Идентификатор : 4
    Формат : Timed Text
    Идентификатор кодека : tx3g
    Продолжительность : 2 ч. 15 м.
    Вид битрейта : Переменный
    Битрейт : 91 бит/сек
    Размер потока : 90, 0 Кбайт (0%)
    Заголовок : Full
    Язык : Russian
    Forced : Нет
    Дата кодирования : UTC 2018-02-13 15: 03: 59
    Дата пометки : UTC 2018-02-13 15: 04: 00
    Текст #3
    Идентификатор : 5
    Формат : Timed Text
    Идентификатор кодека : tx3g
    Продолжительность : 15 м. 58 с.
    Вид битрейта : Переменный
    Битрейт : 7 бит/сек
    Размер потока : 822 байт (0%)
    Заголовок : Forced
    Язык : English
    Forced : Нет
    Дата кодирования : UTC 2018-02-13 15: 03: 59
    Дата пометки : UTC 2018-02-13 15: 04: 00
    Текст #4
    Идентификатор : 6
    Формат : Timed Text
    Идентификатор кодека : tx3g
    Продолжительность : 2 ч. 15 м.
    Вид битрейта : Переменный
    Битрейт : 63 бит/сек
    Размер потока : 63, 0 Кбайт (0%)
    Заголовок : Full
    Язык : English
    Forced : Нет
    Дата кодирования : UTC 2018-02-13 15: 03: 59
    Дата пометки : UTC 2018-02-13 15: 04: 00
    Скриншоты:


    Все одноименные релизы в Клубе
    Время раздачи: с 9: 00 до 21: 00 (до появления первых 3-5 скачавших)

    Прямая ссылка скачивания через uTorrent


    Мстители/The Avengers (2012) BDRip [H.264] [MP4|1280x720]
    Рейтинг →
     (голосов: 1, оценка 4/5, голосовать можно 1 раз )

    Другие торренты по теме:

  • Мстители: Война бесконечности / Avengers: Infinity War (2018) TS Proper [H.264]
  • Команда «Мстители» (Сезон 1, Серия: 1-26 из 26) / Мстители, общий сбор / Marvels Avengers Assemble (2013) WEB-DLRip скачать через торрент бесплатно
  • Команда «Мстители» (Сезон 2, Серия: 1-9 из ) / Мстители, общий сбор / Marvels Avengers Assemble (2014) WEB-DLRip (Обновляемая) скачать через торрент бесплатно
  • Команда «Мстители» (Сезон 1, Серия: 1-26 из 26) / Мстители, общий сбор / Marvels Avengers Assemble (2013) WEB-DL [1080p] скачать через торрент бесплатно
  • Команда «Мстители» / Мстители, общий сбор / Marvels Avengers Assemble (2014) WEB-DL [H.264 / 1080p] (Сезон 2, Серия: 1-17 из 26) [Обновляемая] скачать через торрент бесплатно
  • Alan Silvestri - Мстители / The Avengers (Complete Motion Picture Score) (2012) [MP3|320 кб / с]<Soundtrack>
  • Мстители / The Avengers (1998) HDRip [576p] iPad
  • Мстители: Эра Альтрона / Avengers: Age of Ultron (2015) WEBRip [1080p] [Трейлер] [RUS] скачать через торрент бесплатно


    • Комментарии (0):

      Информация

      Информация

        Посетители, находящиеся в группе Гости, не могут оставлять комментарии в данной новости.

        ↓ Меню




        ↓ Опрос

        Вы добавили сайт в закладки?
        Да
        Нет


        Top 10 за месяц (КПК и мобильные)