.
Авторизация | Регистрация
Хочешь лучшие торренты? Добавь свой email!
Добавить

Торрент скачать бесплатно

  • support: webmaster@btracker.org
» » Помни / Memento (2000) HDRip [H.264] [MP4|1280x544] торрент скачать бесплатно


    Помни / Memento (2000) HDRip [H.264] [MP4|1280x544] торрент скачать бесплатно

    Опубликовал: Админ | Дата: 12-03-2018, 05:00 | .torrent скачали: 1

    Помни / Memento (2000) HDRip [H.264] [MP4|1280x544]Производство: США
    Жанр: Триллер, Детектив, Драма, Криминал
    Режиссер: Кристофер Нолан
    Продюсер: Дженнифер Тодд, Сюзанн Тодд, Кристофер Болл
    Актеры: Гай Пирс, Кэрри-Энн Мосс, Джо Пантолиано, Марк Бун Джуниор, Russ Fega, Джоржа Фокс, Стивен Тоболовски, Харриет Сэнсом Харрис, Томас Леннон, Каллум Кейт Ренни, Кимберли Кэмпбелл, Марианн Мюллерлейл, Ларри Холден, Базз Висконти

    Описание

    Леонард Шелби изысканно и дорого одет, ездит на новеньком Ягуаре, но проживает в дешевых мотелях. Его цель в жизни — найти убийцу жены. Его проблема — редкая форма амнезии, потеря короткой памяти, помня все до убийства, он не помнит, что было пятнадцать минут назад.

    Возраст: 16+ (зрителям, достигшим 16 лет)
    Рейтинг MPAA: R (лицам до 17 лет обязательно присутствие взрослого)
    Дата мировой премьеры: 5 сентября 2000
    Дата российской премьеры: 28 июня 2001
    Продолжительность: 01: 53: 27
    Качество видео: HDRip
    Перевод: Дублированный (Лицензия)
    Субтитры: Русские (полные), Английские (полные)
    Видео: AVC/H.264, 1280x544, ~1031 Kbps
    Аудио: AAC, 2 ch, ~128 Kbps

    Общее
    Полное имя : E: DownloadПомни 2000 720p.mp4
    Формат : MPEG-4
    Профиль формата : Base Media
    Идентификатор кодека : isom (isom/avc1)
    Размер файла : 943 Мбайт
    Продолжительность : 1 ч. 53 м.
    Режим общего битрейта : Переменный
    Общий поток : 1162 Кбит/сек
    Дата кодирования : UTC 2018-02-28 09: 51: 36
    Дата пометки : UTC 2018-02-28 09: 51: 36
    Видео
    Идентификатор : 1
    Формат : AVC
    Формат/Информация : Advanced Video Codec
    Профиль формата : High@L3.1
    Настройки формата : CABAC/1 Ref Frames
    Параметр CABAC формата : Да
    Параметр RefFrames формата : 1 кадр
    Параметр GOP формата : M=1, N=60
    Идентификатор кодека : avc1
    Идентификатор кодека/Информация : Advanced Video Coding
    Продолжительность : 1 ч. 53 м.
    Битрейт : 1031 Кбит/сек
    Максимальный битрейт : 5645 Кбит/сек
    Ширина : 1280 пикселей
    Высота : 544 пикселя
    Соотношение сторон : 2, 35: 1
    Режим частоты кадров : Постоянный
    Частота кадров : 23, 976 (24000/1001) кадра/сек
    Цветовое пространство : YUV
    Субдискретизация насыщенности : 4: 2: 0
    Битовая глубина : 8 бит
    Тип развёртки : Прогрессивная
    Бит/(Пиксели*Кадры) : 0.062
    Размер потока : 837 Мбайт (89%)
    Дата кодирования : UTC 2018-02-28 09: 51: 36
    Дата пометки : UTC 2018-02-28 09: 52: 35
    Цветовой диапазон : Limited
    Основные цвета : BT.709
    Характеристики трансфера : BT.709
    Коэффициенты матрицы : BT.709
    Аудио
    Идентификатор : 2
    Формат : AAC
    Формат/Информация : Advanced Audio Codec
    Профиль формата : LC
    Идентификатор кодека : mp4a-40-2
    Продолжительность : 1 ч. 53 м.
    Вид битрейта : Переменный
    Битрейт : 128 Кбит/сек
    Максимальный битрейт : 139 Кбит/сек
    Каналы : 2 канала
    Расположение каналов : Front: L R
    Частота : 48, 0 КГц
    Частота кадров : 46, 875 кадров/сек (1024 SPF)
    Метод сжатия : С потерями
    Размер потока : 104 Мбайт (11%)
    Заголовок : Дублированный (Лицензия)
    Язык : Russian
    Дата кодирования : UTC 2018-02-28 09: 52: 21
    Дата пометки : UTC 2018-02-28 09: 52: 35
    Текст #1
    Идентификатор : 3
    Формат : Timed Text
    Идентификатор кодека : tx3g
    Продолжительность : 1 ч. 50 м.
    Вид битрейта : Переменный
    Битрейт : 107 бит/сек
    Размер потока : 86, 8 Кбайт (0%)
    Заголовок : Full
    Язык : Russian
    Forced : Нет
    Дата кодирования : UTC 2018-02-28 09: 52: 35
    Дата пометки : UTC 2018-02-28 09: 52: 35
    Текст #2
    Идентификатор : 4
    Формат : Timed Text
    Идентификатор кодека : tx3g
    Продолжительность : 1 ч. 50 м.
    Вид битрейта : Переменный
    Битрейт : 72 бит/сек
    Размер потока : 58, 3 Кбайт (0%)
    Заголовок : Full
    Язык : English
    Forced : Нет
    Дата кодирования : UTC 2018-02-28 09: 52: 35
    Дата пометки : UTC 2018-02-28 09: 52: 35
    Скриншоты:


    Все одноименные релизы в Клубе
    Время раздачи: с 9: 00 до 21: 00 (до появления первых 3-5 скачавших)


    Помни/Memento (2000) HDRip [H.264] [MP4|1280x544]
    Рейтинг →
     (голосов: 1, оценка 3/5, голосовать можно 1 раз )

    Другие торренты по теме:

  • Помни / Memento (2000) BDRip [H.265 / 1080p-LQ]
  • Помни / Memento (2000) BDRip [H.264 / 1080p-LQ]
  • Помни / Memento (2000) HDRip [H.264] [MP4|1920x816]
  • Riddles of Fate 3: Memento Mori / Загадки судьбы. Помни о смерти (2014) [Ru] Unofficial [Collectors Edition / Коллекционное издание] скачать через торрент бесплатно


    • Комментарии (0):

      Информация

      Информация

        Посетители, находящиеся в группе Гости, не могут оставлять комментарии в данной новости.

        ↓ Меню




        ↓ Опрос

        Вы добавили сайт в закладки?
        Да
        Нет


        Top 10 за месяц (КПК и мобильные)