.
Авторизация | Регистрация
Хочешь лучшие торренты? Добавь свой email!
Добавить

Торрент скачать бесплатно

  • support: webmaster@btracker.org
» » Помни / Memento (2000) HDRip [H.264] [MP4|1920x816] торрент скачать бесплатно


    Помни / Memento (2000) HDRip [H.264] [MP4|1920x816] торрент скачать бесплатно

    Опубликовал: Админ | Дата: 12-03-2018, 05:00 | .torrent скачали: 0

    Помни / Memento (2000) HDRip [H.264] [MP4|1920x816]Производство: США
    Жанр: Триллер, Детектив, Драма, Криминал
    Режиссер: Кристофер Нолан
    Продюсер: Дженнифер Тодд, Сюзанн Тодд, Кристофер Болл
    Актеры: Гай Пирс, Кэрри-Энн Мосс, Джо Пантолиано, Марк Бун Джуниор, Russ Fega, Джоржа Фокс, Стивен Тоболовски, Харриет Сэнсом Харрис, Томас Леннон, Каллум Кейт Ренни, Кимберли Кэмпбелл, Марианн Мюллерлейл, Ларри Холден, Базз Висконти

    Описание

    Леонард Шелби изысканно и дорого одет, ездит на новеньком Ягуаре, но проживает в дешевых мотелях. Его цель в жизни — найти убийцу жены. Его проблема — редкая форма амнезии, потеря короткой памяти, помня все до убийства, он не помнит, что было пятнадцать минут назад.

    Возраст: 16+ (зрителям, достигшим 16 лет)
    Рейтинг MPAA: R (лицам до 17 лет обязательно присутствие взрослого)
    Дата мировой премьеры: 5 сентября 2000
    Дата российской премьеры: 28 июня 2001
    Продолжительность: 01: 53: 27
    Качество видео: HDRip
    Перевод: Дублированный (Лицензия)
    Субтитры: Русские (полные), Английские (полные)
    Видео: AVC/H.264, 1920x816, ~2052 Kbps
    Аудио: AC3, 6 ch, 384 Kbps

    Общее
    Полное имя : E: DownloadПомни 2000 1080p.mp4
    Формат : MPEG-4
    Профиль формата : Base Media
    Идентификатор кодека : isom (isom/avc1/iso6)
    Размер файла : 1, 93 Гбайт
    Продолжительность : 1 ч. 53 м.
    Режим общего битрейта : Переменный
    Общий поток : 2438 Кбит/сек
    Дата кодирования : UTC 2018-02-28 11: 03: 43
    Дата пометки : UTC 2018-02-28 11: 03: 43
    Видео
    Идентификатор : 1
    Формат : AVC
    Формат/Информация : Advanced Video Codec
    Профиль формата : High@L4
    Настройки формата : CABAC/2 Ref Frames
    Параметр CABAC формата : Да
    Параметр RefFrames формата : 2 кадра
    Идентификатор кодека : avc1
    Идентификатор кодека/Информация : Advanced Video Coding
    Продолжительность : 1 ч. 53 м.
    Битрейт : 2052 Кбит/сек
    Максимальный битрейт : 7886 Кбит/сек
    Ширина : 1920 пикселей
    Высота : 816 пикселей
    Соотношение сторон : 2, 35: 1
    Режим частоты кадров : Постоянный
    Частота кадров : 23, 976 (24000/1001) кадра/сек
    Цветовое пространство : YUV
    Субдискретизация насыщенности : 4: 2: 0
    Битовая глубина : 8 бит
    Тип развёртки : Прогрессивная
    Бит/(Пиксели*Кадры) : 0.055
    Размер потока : 1, 63 Гбайт (84%)
    Дата кодирования : UTC 2018-02-28 11: 03: 43
    Дата пометки : UTC 2018-02-28 11: 05: 06
    Цветовой диапазон : Limited
    Основные цвета : BT.709
    Характеристики трансфера : BT.709
    Коэффициенты матрицы : BT.709
    Аудио
    Идентификатор : 2
    Формат : AC-3
    Формат/Информация : Audio Coding 3
    Параметр Endianness формата : Big
    Идентификатор кодека : ac-3
    Продолжительность : 1 ч. 53 м.
    Вид битрейта : Постоянный
    Битрейт : 384 Кбит/сек
    Максимальный битрейт : 406 Кбит/сек
    Каналы : 6 каналов
    Расположение каналов : Front: L C R, Side: L R, LFE
    Частота : 48, 0 КГц
    Частота кадров : 31, 250 кадров/сек (1536 SPF)
    Битовая глубина : 16 бит
    Метод сжатия : С потерями
    Размер потока : 311 Мбайт (16%)
    Заголовок : Дублированный (Лицензия)
    Язык : Russian
    ServiceKind/String : Complete Main
    Дата кодирования : UTC 2018-02-28 11: 04: 46
    Дата пометки : UTC 2018-02-28 11: 05: 06
    Текст #1
    Идентификатор : 3
    Формат : Timed Text
    Идентификатор кодека : tx3g
    Продолжительность : 1 ч. 50 м.
    Вид битрейта : Переменный
    Битрейт : 107 бит/сек
    Размер потока : 86, 8 Кбайт (0%)
    Заголовок : Full
    Язык : Russian
    Forced : Нет
    Дата кодирования : UTC 2018-02-28 11: 05: 06
    Дата пометки : UTC 2018-02-28 11: 05: 06
    Текст #2
    Идентификатор : 4
    Формат : Timed Text
    Идентификатор кодека : tx3g
    Продолжительность : 1 ч. 50 м.
    Вид битрейта : Переменный
    Битрейт : 72 бит/сек
    Размер потока : 58, 3 Кбайт (0%)
    Заголовок : Full
    Язык : English
    Forced : Нет
    Дата кодирования : UTC 2018-02-28 11: 05: 06
    Дата пометки : UTC 2018-02-28 11: 05: 06
    Скриншоты:


    Все одноименные релизы в Клубе
    Время раздачи: с 9: 00 до 21: 00 (до появления первых 3-5 скачавших)


    Помни/Memento (2000) HDRip [H.264] [MP4|1920x816]
    Рейтинг →
     (голосов: 1, оценка 3/5, голосовать можно 1 раз )

    Другие торренты по теме:

  • Помни / Memento (2000) BDRip [H.265 / 1080p-LQ]
  • Помни / Memento (2000) BDRip [H.264 / 1080p-LQ]
  • Помни / Memento (2000) HDRip [H.264] [MP4|1280x544]
  • Riddles of Fate 3: Memento Mori / Загадки судьбы. Помни о смерти (2014) [Ru] Unofficial [Collectors Edition / Коллекционное издание] скачать через торрент бесплатно


    • Комментарии (0):

      Информация

      Информация

        Посетители, находящиеся в группе Гости, не могут оставлять комментарии в данной новости.

        ↓ Меню




        ↓ Опрос

        Вы добавили сайт в закладки?
        Да
        Нет


        Top 10 за месяц (КПК и мобильные)