.
Авторизация | Регистрация
Хочешь лучшие торренты? Добавь свой email!
Добавить

Торрент скачать бесплатно

» » ВРЕМЯ ПЕРВЫХ - антисоветская сказка (2017) WEBRip [H.264] [MP4|1280x720] торрент скачать бесплатно

    ВРЕМЯ ПЕРВЫХ - антисоветская сказка (2017) WEBRip [H.264] [MP4|1280x720] торрент скачать бесплатно

    Опубликовал: Админ | Дата: 12-03-2018, 05:00 | .torrent скачали: 0

    ВРЕМЯ ПЕРВЫХ - антисоветская сказка (2017) WEBRip [H.264] [MP4|1280x720]Жанр: История, Документальный

    Описание

    Предлагаемый фильм является разбором идеологической составляющей отечественной кинокартины 2017 года Время первых. Можно с уверенностью сказать, что ваше мнение о фильме после данного разбора изменится кардинально. В процессе разбора выясняется, что кроме собственно выхода в космос в фильме нет ни слова правды. А что же там есть? Антисоветчина. Не грубая и топорная, как в штрафбатах и предстояниях, а тонкая, изысканная, трезво обдуманная. Все стандартные штампы на месте: не благодаря, а вопреки, СССР - тоталитарный монстр, яркая личность против бездушной системы. Однако теперь антисоветчина рядится в патриотические одежды. С нами А. Леонов. Попробуй, возрази...
    Релиз от: Tubus Show
    Продолжительность: 01: 48: 57
    Качество видео: WEBRip
    Перевод: Не требуется
    Субтитры: Отсутствуют
    Видео: AVC/H.264, 1280x720, ~1408Kbps
    Аудио: AAC, 2 ch, 126Kbps

    Общее
    Полное имя : C: ВРЕМЯ ПЕРВЫХ - антисоветская сказка.MP4
    Формат : MPEG-4
    Профиль формата : Base Media/Version 2
    Идентификатор кодека : mp42 (isom/mp42)
    Размер файла : 1, 17 Гбайт
    Продолжительность : 1 ч. 48 м.
    Режим общего битрейта : Переменный
    Общий поток : 1537 Кбит/сек
    Дата кодирования : UTC 2018-03-01 23: 30: 32
    Дата пометки : UTC 2018-03-01 23: 30: 32
    gsst : 0
    gstd : 6537206
    Видео
    Идентификатор : 1
    Формат : AVC
    Формат/Информация : Advanced Video Codec
    Профиль формата : Main@L3.1
    Настройки формата : CABAC/3 Ref Frames
    Параметр CABAC формата : Да
    Параметр RefFrames формата : 3 кадра
    Идентификатор кодека : avc1
    Идентификатор кодека/Информация : Advanced Video Coding
    Продолжительность : 1 ч. 48 м.
    Битрейт : 1408 Кбит/сек
    Ширина : 1280 пикселей
    Высота : 720 пикселей
    Соотношение сторон : 16: 9
    Режим частоты кадров : Постоянный
    Частота кадров : 25, 000 кадров/сек
    Цветовое пространство : YUV
    Субдискретизация насыщенности : 4: 2: 0
    Битовая глубина : 8 бит
    Тип развёртки : Прогрессивная
    Бит/(Пиксели*Кадры) : 0.061
    Размер потока : 1, 07 Гбайт (92%)
    Заголовок : ISO Media file produced by Google Inc. Created on: 03/01/2018.
    Дата кодирования : UTC 2018-03-01 23: 30: 32
    Дата пометки : UTC 2018-03-01 23: 30: 32
    Цветовой диапазон : Limited
    Основные цвета : BT.709
    Характеристики трансфера : BT.709
    Коэффициенты матрицы : BT.709
    Аудио
    Идентификатор : 2
    Формат : AAC
    Формат/Информация : Advanced Audio Codec
    Профиль формата : LC
    Идентификатор кодека : mp4a-40-2
    Продолжительность : 1 ч. 48 м.
    Продолжительность оригинала : 1 ч. 48 м.
    Вид битрейта : Переменный
    Битрейт : 126 Кбит/сек
    Каналы : 2 канала
    Расположение каналов : Front: L R
    Частота : 44, 1 КГц
    Частота кадров : 43, 066 кадра/сек (1024 SPF)
    Метод сжатия : С потерями
    Размер потока : 97, 9 Мбайт (8%)
    Размер потока оригинала : 97, 9 Мбайт (8%)
    Скриншоты:


    Все одноименные релизы в Клубе
    Время раздачи: по возможности (до появления первых 3-5 скачавших)

    Прямая ссылка скачивания через uTorrent


    ВРЕМЯ ПЕРВЫХ - антисоветская сказка (2017) WEBRip [H.264] [MP4|1280x720]
    Рейтинг →
     (голосов: 1, оценка 3/5, голосовать можно 1 раз )

    Другие торренты по теме:

  • Время первых (2017) CamRip [AD]
  • Время первых (2017) WEB-DLRip
  • Время первых (2017) WEB-DL [H.264 / 1080p-LQ]
  • Время первых (2017) WEB-DL [1080p] ATV
  • Время первых (2017) WEB-DLRip [H.264] [MP4|1024x436]
  • Время первых (2017) WEB-DLRip [576p] iPad
  • Время первых (2017) WEB-DLRip [480p] iPod
  • Время первых (2017) WEB-DLRip [H.264 / 720p-LQ]


    • Комментарии (0):

      Информация

      Информация

        Посетители, находящиеся в группе Гости, не могут оставлять комментарии в данной новости.

        ↓ Меню




        ↓ Опрос

        Вы добавили сайт в закладки?
        Да
        Нет


        Top 10 за месяц (КПК и мобильные)