.
Авторизация | Регистрация
Хочешь лучшие торренты? Добавь свой email!
Добавить

Торрент скачать бесплатно

  • support: webmaster@btracker.org
» » Синий Фил. Спецвыпуск. Разбор фильма Адмирал (2016) WEBRip [H.264] [MP4|1280x720] торрент скачать бесплатно


    Синий Фил. Спецвыпуск. Разбор фильма Адмирал (2016) WEBRip [H.264] [MP4|1280x720] торрент скачать бесплатно

    Опубликовал: Админ | Дата: 12-03-2018, 05:00 | .torrent скачали: 0

    Синий Фил. Спецвыпуск. Разбор фильма Адмирал (2016) WEBRip [H.264] [MP4|1280x720]Производство: Россия
    Жанр: История, Документальный
    Участники: Дмитрий Пучков, историк Борис Юлин

    Описание

    Разбор фильма Адмирал и личности Колчака.
    Релиз от: Dmitry Puchkov
    Продолжительность: 01: 12: 05
    Качество видео: WEBRip
    Перевод: Не требуется
    Субтитры: Отсутствуют
    Видео: AVC/H.264, 1280x720, ~935Kbps
    Аудио: AAC, 2 ch, 126 Kbps

    Общее
    Полное имя : C: Синий Фил 180 (спецвыпуск)Адмиралъ.MP4
    Формат : MPEG-4
    Профиль формата : Base Media/Version 2
    Идентификатор кодека : mp42 (isom/mp42)
    Размер файла : 549 Мбайт
    Продолжительность : 1 ч. 12 м.
    Режим общего битрейта : Переменный
    Общий поток : 1064 Кбит/сек
    Дата кодирования : UTC 2016-11-17 17: 40: 38
    Дата пометки : UTC 2016-11-17 17: 40: 38
    gsst : 0
    gstd : 4325111
    Видео
    Идентификатор : 1
    Формат : AVC
    Формат/Информация : Advanced Video Codec
    Профиль формата : Main@L3.1
    Настройки формата : CABAC/3 Ref Frames
    Параметр CABAC формата : Да
    Параметр RefFrames формата : 3 кадра
    Идентификатор кодека : avc1
    Идентификатор кодека/Информация : Advanced Video Coding
    Продолжительность : 1 ч. 12 м.
    Битрейт : 935 Кбит/сек
    Ширина : 1280 пикселей
    Высота : 720 пикселей
    Соотношение сторон : 16: 9
    Режим частоты кадров : Постоянный
    Частота кадров : 25, 000 кадров/сек
    Цветовое пространство : YUV
    Субдискретизация насыщенности : 4: 2: 0
    Битовая глубина : 8 бит
    Тип развёртки : Прогрессивная
    Бит/(Пиксели*Кадры) : 0.041
    Размер потока : 482 Мбайт (88%)
    Заголовок : ISO Media file produced by Google Inc.
    Дата кодирования : UTC 2016-11-17 17: 40: 38
    Дата пометки : UTC 2016-11-17 17: 40: 38
    Цветовой диапазон : Limited
    Основные цвета : BT.709
    Характеристики трансфера : BT.709
    Коэффициенты матрицы : BT.709
    Аудио
    Идентификатор : 2
    Формат : AAC
    Формат/Информация : Advanced Audio Codec
    Профиль формата : LC
    Идентификатор кодека : mp4a-40-2
    Продолжительность : 1 ч. 12 м.
    Продолжительность оригинала : 1 ч. 12 м.
    Вид битрейта : Переменный
    Битрейт : 126 Кбит/сек
    Каналы : 2 канала
    Расположение каналов : Front: L R
    Частота : 44, 1 КГц
    Частота кадров : 43, 066 кадра/сек (1024 SPF)
    Метод сжатия : С потерями
    Размер потока : 64, 8 Мбайт (12%)
    Размер потока оригинала : 64, 8 Мбайт (12%)
    Скриншоты:


    Все одноименные релизы в Клубе
    Время раздачи: 24/7 (круглосуточно) (до появления первых 3-5 скачавших)


    Синий Фил. Спецвыпуск. Разбор фильма Адмирал (2016) WEBRip [H.264] [MP4|1280x720]
    Рейтинг →
     (голосов: 1, оценка 5/5, голосовать можно 1 раз )

    Другие торренты по теме:

  • Синий демон / Blue Demon (2014) HDRip
  • Синий демон / Ao oni (2014) HDRip [576p] iPad скачать через торрент бесплатно
  • Синий сок / Blue Juice (1995) DVDRip скачать через торрент бесплатно
  • Синий сок / Blue Juice (1995) DVDRip скачать через торрент бесплатно
  • Вячеслав Назаров | Синий дым (2015) [MP3] скачать через торрент бесплатно
  • Синий бархат / Blue Velvet (1986) BDRip [H.264 / 1080p] скачать через торрент бесплатно
  • Виталий Мелик-Карамов | Почему у собаки чау-чау синий язык (2016) [MP3]
  • Холли Шиндлер | Тёмно-синий (2015) [FB2]


    • Комментарии (0):

      Информация

      Информация

        Посетители, находящиеся в группе Гости, не могут оставлять комментарии в данной новости.

        ↓ Меню




        ↓ Опрос

        Вы добавили сайт в закладки?
        Да
        Нет


        Top 10 за месяц (КПК и мобильные)