.
Авторизация | Регистрация
Хочешь лучшие торренты? Добавь свой email!
Добавить

Торрент скачать бесплатно

» » Матрица: Революция / The Matrix Revolutions (2003) HDRip [H.264] [MP4|1280x532] торрент скачать бесплатно


    Матрица: Революция / The Matrix Revolutions (2003) HDRip [H.264] [MP4|1280x532] торрент скачать бесплатно

    Опубликовал: Админ | Дата: 11-03-2018, 05:00 | .torrent скачали: 1

    Матрица: Революция / The Matrix Revolutions (2003) HDRip [H.264] [MP4|1280x532]Производство: Австралия, США
    Жанр: Фантастика, Боевик
    Режиссер: Лана Вачовски, Лилли Вачовски
    Продюсер: Джоэл Силвер, Брюс Берман, Дэвид Форбс
    Актеры: Киану Ривз, Хьюго Уивинг, Кэрри-Энн Мосс, Лоренс Фишбёрн, Хэролд Перрино, Джина Торрес, Джада Пинкетт Смит, Моника Беллуччи, Гарри Дж. Ленникс, Мэри Элис

    Описание

    Пока армия Машин пытается уничтожить Зион, его жители из последних сил держат оборону. Но удастся ли им предотвратить полное вторжение в город кишащей орды беспощадных машин до того, как Нео соберет все свои силы и положит конец войне?

    Возраст: 16+ (зрителям, достигшим 16 лет)
    Рейтинг MPAA: R (лицам до 17 лет обязательно присутствие взрослого)
    Дата мировой премьеры: 27 октября 2003
    Дата российской премьеры: 5 ноября 2003
    Продолжительность: 02: 09: 15
    Качество видео: HDRip
    Перевод: Дублированный (Лицензия)
    Субтитры: Русские (полные), Английские (полные)
    Видео: AVC/H.264, 1280x532, ~1387 Kbps
    Аудио: AAC, 2 ch, ~129 Kbps

    Общее
    Полное имя : E: DownloadМатрица Революция 2003 720p.mp4
    Формат : MPEG-4
    Профиль формата : Base Media
    Идентификатор кодека : isom (isom/avc1)
    Размер файла : 1, 37 Гбайт
    Продолжительность : 2 ч. 9 м.
    Режим общего битрейта : Переменный
    Общий поток : 1518 Кбит/сек
    Дата кодирования : UTC 2018-03-05 08: 52: 34
    Дата пометки : UTC 2018-03-05 08: 52: 34
    Видео
    Идентификатор : 1
    Формат : AVC
    Формат/Информация : Advanced Video Codec
    Профиль формата : High@L3.1
    Настройки формата : CABAC/1 Ref Frames
    Параметр CABAC формата : Да
    Параметр RefFrames формата : 1 кадр
    Параметр GOP формата : M=1, N=60
    Идентификатор кодека : avc1
    Идентификатор кодека/Информация : Advanced Video Coding
    Продолжительность : 2 ч. 9 м.
    Битрейт : 1387 Кбит/сек
    Максимальный битрейт : 7639 Кбит/сек
    Ширина : 1280 пикселей
    Высота : 532 пикселя
    Соотношение сторон : 2, 40: 1
    Режим частоты кадров : Постоянный
    Частота кадров : 23, 976 (24000/1001) кадра/сек
    Цветовое пространство : YUV
    Субдискретизация насыщенности : 4: 2: 0
    Битовая глубина : 8 бит
    Тип развёртки : Прогрессивная
    Бит/(Пиксели*Кадры) : 0.085
    Размер потока : 1, 25 Гбайт (91%)
    Дата кодирования : UTC 2018-03-05 08: 52: 34
    Дата пометки : UTC 2018-03-05 08: 53: 55
    Цветовой диапазон : Limited
    Основные цвета : BT.709
    Характеристики трансфера : BT.709
    Коэффициенты матрицы : BT.709
    Аудио
    Идентификатор : 2
    Формат : AAC
    Формат/Информация : Advanced Audio Codec
    Профиль формата : LC
    Идентификатор кодека : mp4a-40-2
    Продолжительность : 2 ч. 9 м.
    Вид битрейта : Переменный
    Битрейт : 129 Кбит/сек
    Максимальный битрейт : 140 Кбит/сек
    Каналы : 2 канала
    Расположение каналов : Front: L R
    Частота : 48, 0 КГц
    Частота кадров : 46, 875 кадров/сек (1024 SPF)
    Метод сжатия : С потерями
    Размер потока : 119 Мбайт (8%)
    Заголовок : Дублированный (Лицензия)
    Язык : Russian
    Дата кодирования : UTC 2018-03-05 08: 53: 40
    Дата пометки : UTC 2018-03-05 08: 53: 55
    Текст #1
    Идентификатор : 3
    Формат : Timed Text
    Идентификатор кодека : tx3g
    Продолжительность : 2 ч. 9 м.
    Вид битрейта : Переменный
    Битрейт : 64 бит/сек
    Размер потока : 60, 6 Кбайт (0%)
    Заголовок : Full
    Язык : Russian
    Forced : Нет
    Дата кодирования : UTC 2018-03-05 08: 53: 54
    Дата пометки : UTC 2018-03-05 08: 53: 55
    Текст #2
    Идентификатор : 4
    Формат : Timed Text
    Идентификатор кодека : tx3g
    Продолжительность : 1 ч. 59 м.
    Вид битрейта : Переменный
    Битрейт : 46 бит/сек
    Размер потока : 40, 5 Кбайт (0%)
    Заголовок : Full
    Язык : English
    Forced : Нет
    Дата кодирования : UTC 2018-03-05 08: 53: 54
    Дата пометки : UTC 2018-03-05 08: 53: 55
    Скриншоты:


    Все одноименные релизы в Клубе
    Время раздачи: с 9: 00 до 21: 00 (до появления первых 3-5 скачавших)


    Матрица: Революция/The Matrix Revolutions (2003) HDRip [H.264] [MP4|1280x532]
    Рейтинг →
     (голосов: 1, оценка 5/5, голосовать можно 1 раз )

    Другие торренты по теме:

  • Матрица: Революция / The Matrix Revolutions (2003) BDRip [H.264 / 1080p-LQ] скачать через торрент бесплатно
  • Матрица: Революция / The Matrix Revolutions (2003) BDRip [H.264 / 720p] скачать через торрент бесплатно
  • Матрица: Революция / The Matrix Revolutions (2003) BDRip [H.264 / 1080p-LQ] скачать через торрент бесплатно
  • Матрица: Революция / The Matrix Revolutions (2003) BDRip ) [H.264 / 720р-LQ]
  • Матрица: Революция / The Matrix Revolutions (2003) HDRip [H.264] [MP4|1920x798]


    • Комментарии (0):

      Информация

      Информация

        Посетители, находящиеся в группе Гости, не могут оставлять комментарии в данной новости.

        ↓ Меню




        ↓ Опрос

        Вы добавили сайт в закладки?
        Да
        Нет


        Top 10 за месяц (КПК и мобильные)