.
Авторизация | Регистрация
Хочешь лучшие торренты? Добавь свой email!
Добавить

Торрент скачать бесплатно

» » Джуманджи: Зов джунглей / Jumanji: Welcome to the Jungle (2017) HDRip [H.264] [MP4|1280x534] торрент скачать бесплатно


    Джуманджи: Зов джунглей / Jumanji: Welcome to the Jungle (2017) HDRip [H.264] [MP4|1280x534] торрент скачать бесплатно

    Опубликовал: Админ | Дата: 10-03-2018, 05:00 | .torrent скачали: 0

    Джуманджи: Зов джунглей / Jumanji: Welcome to the Jungle (2017) HDRip [H.264] [MP4|1280x534]Производство: США
    Жанр: Фэнтези, Боевик, Комедия, Приключения
    Режиссер: Джейк Кэздан
    Продюсер: Тед Филд, Дэни Гарсиа, Хирам Гарсиа
    Актеры: Дуэйн Джонсон, Кевин Харт, Джек Блэк, Карен Гиллан, Риз Дэрби, Бобби Каннавейл, Ник Джонас, Алекс Вулф, Сер’Дариус Блэйн, Мэдисон Исман

    Описание

    Четверо подростков оказываются внутри игры Джуманджи. Их ждет схватка с носорогами, черными мамбами, а на каждом шагу будет подстерегать бесконечная череда ловушек и головоломок. Чтобы пройти игру и остаться в живых, им придется перевоплотиться в персонажей игры: робкий и застенчивый Спенсер превращается в отважного и сильного исследователя, здоровяк Фридж — в коротышку, модница и красавица Беттани — в профессора, а неуклюжая и нескладная Марта становится бесстрашной и ловкой амазонкой. Друзьям придется привыкнуть к совершенно новым и таким непривычным для себя ролям и найти дорогу домой.

    Возраст: 16+ (зрителям, достигшим 16 лет)
    Рейтинг MPAA: PG-13 (детям до 13 лет просмотр нежелателен)
    Дата мировой премьеры: 5 декабря 2017
    Дата российской премьеры: 21 декабря 2017
    Продолжительность: 01: 59: 03
    Качество видео: HDRip
    Перевод: Дублированный (iTunes)
    Субтитры: Русские (полные), Английские (полные)
    Видео: AVC/H.264, 1280x534, ~1519 Kbps
    Аудио: AAC, 2 ch, ~128 Kbps

    Общее
    Полное имя : E: DownloadДжуманджи Зов джунглей 2017 720p.mp4
    Формат : MPEG-4
    Профиль формата : Base Media
    Идентификатор кодека : isom (isom/avc1)
    Размер файла : 1, 37 Гбайт
    Продолжительность : 1 ч. 59 м.
    Режим общего битрейта : Переменный
    Общий поток : 1650 Кбит/сек
    Дата кодирования : UTC 2018-03-08 17: 07: 54
    Дата пометки : UTC 2018-03-08 17: 07: 54
    Видео
    Идентификатор : 1
    Формат : AVC
    Формат/Информация : Advanced Video Codec
    Профиль формата : High@L3.1
    Настройки формата : CABAC/1 Ref Frames
    Параметр CABAC формата : Да
    Параметр RefFrames формата : 1 кадр
    Параметр GOP формата : M=1, N=60
    Идентификатор кодека : avc1
    Идентификатор кодека/Информация : Advanced Video Coding
    Продолжительность : 1 ч. 59 м.
    Битрейт : 1519 Кбит/сек
    Максимальный битрейт : 6300 Кбит/сек
    Ширина : 1280 пикселей
    Высота : 534 пикселя
    Соотношение сторон : 2, 40: 1
    Режим частоты кадров : Постоянный
    Частота кадров : 23, 976 (24000/1001) кадра/сек
    Цветовое пространство : YUV
    Субдискретизация насыщенности : 4: 2: 0
    Битовая глубина : 8 бит
    Тип развёртки : Прогрессивная
    Бит/(Пиксели*Кадры) : 0.093
    Размер потока : 1, 26 Гбайт (92%)
    Дата кодирования : UTC 2018-03-08 17: 07: 54
    Дата пометки : UTC 2018-03-08 17: 09: 41
    Цветовой диапазон : Limited
    Основные цвета : BT.709
    Характеристики трансфера : BT.709
    Коэффициенты матрицы : BT.709
    Аудио
    Идентификатор : 2
    Формат : AAC
    Формат/Информация : Advanced Audio Codec
    Профиль формата : LC
    Идентификатор кодека : mp4a-40-2
    Продолжительность : 1 ч. 59 м.
    Вид битрейта : Переменный
    Битрейт : 128 Кбит/сек
    Максимальный битрейт : 141 Кбит/сек
    Каналы : 2 канала
    Расположение каналов : Front: L R
    Частота : 48, 0 КГц
    Частота кадров : 46, 875 кадров/сек (1024 SPF)
    Метод сжатия : С потерями
    Размер потока : 109 Мбайт (8%)
    Заголовок : Дублированный (iTunes)
    Язык : Russian
    Дата кодирования : UTC 2018-03-08 17: 09: 25
    Дата пометки : UTC 2018-03-08 17: 09: 41
    Текст #1
    Идентификатор : 3
    Формат : Timed Text
    Идентификатор кодека : tx3g
    Продолжительность : 1 ч. 59 м.
    Вид битрейта : Переменный
    Битрейт : 101 бит/сек
    Размер потока : 88, 4 Кбайт (0%)
    Заголовок : Full
    Язык : Russian
    Forced : Нет
    Дата кодирования : UTC 2018-03-08 17: 09: 41
    Дата пометки : UTC 2018-03-08 17: 09: 41
    Текст #2
    Идентификатор : 4
    Формат : Timed Text
    Идентификатор кодека : tx3g
    Продолжительность : 1 ч. 50 м.
    Вид битрейта : Переменный
    Битрейт : 71 бит/сек
    Размер потока : 57, 0 Кбайт (0%)
    Заголовок : Full
    Язык : English
    Forced : Нет
    Дата кодирования : UTC 2018-03-08 17: 09: 41
    Дата пометки : UTC 2018-03-08 17: 09: 41
    Скриншоты:


    Все одноименные релизы в Клубе
    Время раздачи: с 9: 00 до 21: 00 (до появления первых 3-5 скачавших)


    Джуманджи: Зов джунглей/Jumanji: Welcome to the Jungle (2017) HDRip [H.264] [MP4|1280x534]
    Рейтинг →
     (голосов: 1, оценка 3/5, голосовать можно 1 раз )

    Другие торренты по теме:

  • Джуманджи: Зов джунглей / Jumanji: Welcome to the Jungle (2017) TS [H.264 / 720p-LQ] [AD]
  • Джуманджи: Зов джунглей / Jumanji: Welcome to the Jungle (2017) WEB-DLRip [H.264 / 720p-LQ] [Line, AD]
  • Джуманджи: Зов джунглей / Jumanji: Welcome to the Jungle (2017) WEB-DLRip [Line, AD]
  • Джуманджи: Зов джунглей / Jumanji: Welcome to the Jungle (2017) WEB-DL [H.264 / 1080p-LQ]
  • Джуманджи: Зов джунглей / Jumanji: Welcome to the Jungle (2017) WEB-DLRip [H.264]
  • Джуманджи: Зов джунглей / Jumanji: Welcome to the Jungle (2017) WEB-DL [H.264 / 720p-LQ]
  • Джуманджи: Зов джунглей / Jumanji: Welcome to the Jungle (2017) WEB-DLRip
  • Джуманджи: Зов джунглей / Jumanji: Welcome to the Jungle (2017) BDRip [H.264 / 1080p]


    • Комментарии (0):

      Информация

      Информация

        Посетители, находящиеся в группе Гости, не могут оставлять комментарии в данной новости.

        ↓ Меню




        ↓ Опрос

        Вы добавили сайт в закладки?
        Да
        Нет


        Top 10 за месяц (КПК и мобильные)