.
Авторизация | Регистрация
Хочешь лучшие торренты? Добавь свой email!
Добавить

Торрент скачать бесплатно

  • support: webmaster@btracker.org
» » Три медведя: Полная коллекция / (The three bears: Full collection) (2016-2018) WEB-DLRip [H.264] (Серии 1-32 из 32 + 1-14 из 14 Караоке версий) [MP4|1280x720] торрент скачать бесплатно


    Три медведя: Полная коллекция / (The three bears: Full collection) (2016-2018) WEB-DLRip [H.264] (Серии 1-32 из 32 + 1-14 из 14 Караоке версий) [MP4|1280x720] торрент скачать бесплатно

    Опубликовал: Админ | Дата: 20-01-2018, 05:00 | .torrent скачали: 55

    Три медведя: Полная коллекция / (The three bears: Full collection) (2016-2018) WEB-DLRip [H.264] (Серии 1-32 из 32 + 1-14 из 14 Караоке версий) [MP4|1280x720]Производство: Россия/BigPapa Media
    Жанр: Семейный, Музыкальный, Компьютерная анимация, Детский, Развивающий
    Режиссер: Артур Днепровский, Рустам Салахов
    Актеры: Арсений Никитин, Данила Кривов, Олег Лагутин

    Описание

    Три медведя - это музыкальное развивающее шоу для детей-малышей от 0 до 5 лет.
    Три медведя - Бурый мишка, Белый и Панда, поют песни и танцуют.
    Все наши песенки не просто веселые, но и полезные. Ведь каждая из них учит малыша чему-то новому.
    Возраст: 0+ (для любой зрительской аудитории)
    Рейтинг MPAA: этот продукт не был классифицирован
    Продолжительность: ~00: 04: 00 серия
    Качество видео: WEB-DLRip
    Перевод: Не требуется
    Субтитры: Отсутствуют
    Видео: AVC/H.264, 1280x720, ~1304 kbps
    Аудио: AAC, 2 ch, 126 kbps

    Формат : MPEG-4
    Профиль формата : Base Media/Version 2
    Идентификатор кодека : mp42 (isom/mp42)
    Размер файла : 41, 0 Мбайт
    Продолжительность : 3 м. 59 с.
    Режим общего битрейта : Переменный
    Общий поток : 1433 Кбит/сек
    Дата кодирования : UTC 2018-01-12 16: 59: 43
    Дата пометки : UTC 2018-01-12 16: 59: 43
    gsst : 0
    gstd : 239815
    Видео
    Идентификатор : 1
    Формат : AVC
    Формат/Информация : Advanced Video Codec
    Профиль формата : Main@L3.1
    Настройки формата : CABAC/3 Ref Frames
    Параметр CABAC формата : Да
    Параметр RefFrames формата : 3 кадра
    Идентификатор кодека : avc1
    Идентификатор кодека/Информация : Advanced Video Coding
    Продолжительность : 3 м. 59 с.
    Битрейт : 1304 Кбит/сек
    Ширина : 1280 пикселей
    Высота : 720 пикселей
    Соотношение сторон : 16: 9
    Режим частоты кадров : Постоянный
    Частота кадров : 25, 000 кадров/сек
    Цветовое пространство : YUV
    Субдискретизация насыщенности : 4: 2: 0
    Битовая глубина : 8 бит
    Тип развёртки : Прогрессивная
    Бит/(Пиксели*Кадры) : 0.057
    Размер потока : 37, 3 Мбайт (91%)
    Заголовок : ISO Media file produced by Google Inc. Created on: 01/12/2018.
    Дата кодирования : UTC 2018-01-12 16: 59: 43
    Дата пометки : UTC 2018-01-12 16: 59: 43
    Цветовой диапазон : Limited
    Основные цвета : BT.709
    Характеристики трансфера : BT.709
    Коэффициенты матрицы : BT.709
    Аудио
    Идентификатор : 2
    Формат : AAC
    Формат/Информация : Advanced Audio Codec
    Профиль формата : LC
    Идентификатор кодека : mp4a-40-2
    Продолжительность : 3 м. 59 с.
    Продолжительность оригинала : 3 м. 59 с.
    Вид битрейта : Переменный
    Битрейт : 126 Кбит/сек
    Каналы : 2 канала
    Расположение каналов : Front: L R
    Частота : 44, 1 КГц
    Частота кадров : 43, 066 кадра/сек (1024 SPF)
    Метод сжатия : С потерями
    Размер потока : 3, 59 Мбайт (9%)
    Размер потока оригинала : 3, 59 Мбайт (9%)
    Заголовок : ISO Media file produced by Google Inc. Created on: 01/12/2018.
    Дата кодирования : UTC 2018-01-12 16: 59: 43
    Дата пометки : UTC 2018-01-12 16: 59: 43
    Скриншоты:

    Все раздачи на NNMClub

    Время раздачи: 24/7 (круглосуточно) (до появления первых 3-5 скачавших)


    Три медведя: Полная коллекция/(The three bears: Full collection) (2016-2018) WEB-DLRip [H.264] (Серии 1-32 из 32 + 1-14 из 14 Караоке версий) [MP4|1280x720]
    Рейтинг →
     (голосов: 1, оценка 3/5, голосовать можно 1 раз )

    Другие торренты по теме:

  • Дмитрий Рус | Три медведя и легион зомби (2015) [MP3] скачать через торрент бесплатно
  • Приключения медведя Бригсби / Brigsby Bear (2017) BDRip [H.264 / 1080p]
  • Приключения медведя Бригсби / Brigsby Bear (2017) HDRip
  • Приключения медведя Бригсби / Brigsby Bear (2017) BDRip [AVO]
  • Приключения медведя Бригсби / Brigsby Bear (2017) BDRip [H.264 / 720] [AVO]
  • Приключения медведя Бригсби / Brigsby Bear (2017) BDRip [H.264 / 720p]
  • Приключения медведя Бригсби / Brigsby Bear (2017) Blu-ray [H.264 / 1080p]


    • Комментарии (0):

      Информация

      Информация

        Посетители, находящиеся в группе Гости, не могут оставлять комментарии в данной новости.

        ↓ Меню




        ↓ Опрос

        Вы добавили сайт в закладки?
        Да
        Нет


        Top 10 за месяц (КПК и мобильные)