.
Авторизация | Регистрация
Хочешь лучшие торренты? Добавь свой email!
Добавить

Торрент скачать бесплатно

  • support: webmaster@btracker.org
» » Мир Юрского периода 2 / Jurassic World: Fallen Kingdom (2018) TS [H.264 / 720p-LQ] [AD] торрент скачать бесплатно


    Мир Юрского периода 2 / Jurassic World: Fallen Kingdom (2018) TS [H.264 / 720p-LQ] [AD] торрент скачать бесплатно

    Опубликовал: Админ | Дата: 8-06-2018, 05:00 | .torrent скачали: 0

    Мир Юрского периода 2 / Jurassic World: Fallen Kingdom (2018) TS [H.264 / 720p-LQ] [AD]Производство: США, Испания, Amblin Entertainment, Apaches Entertainment, Legendary Pictures, Perfect World Pictures, Universal Pictures
    Жанр: Фантастика, Боевик, Приключения
    Режиссер: Хуан Антонио Байона
    Продюсер: Белен Атьенса, Патрик Краули, Фрэнк Маршалл

    Актеры
    Брайс Даллас Ховард, Крис Пратт, Джефф Голдблюм, Тед Левайн, Джеймс Кромуэлл, Тоби Джонс, Б.Д. Вонг, Рейф Сполл, Даниэлла Пинеда, Джеральдин Чаплин

    Описание

    На острове Исла-Нублар, где не так давно располагался парк развлечений с динозаврами, правит бал дикая природа. Но без людей все далеко не так спокойно, как могло бы показаться. Основатели парка приняли решение построить его, несмотря на активный вулкан, расположенный в сердце острова. Вулкан пробудился и рискует потопить остров в лаве. Управляющая парка Клэр Дэринг уговаривает дрессировщика Оуэна Грэди вернуться в бывший парк и спасти динозавров от неминуемой гибели.

    Возраст: 12+ (зрителям, достигшим 12 лет)
    Рейтинг MPAA: PG-13 (детям до 13 лет просмотр нежелателен)
    Дата мировой премьеры: 21 мая 2018
    Дата российской премьеры: 7 июня 2018, UPI
    Продолжительность: 01: 58: 01
    Качество видео: TS
    Перевод: Дублированный
    Субтитры: Отсутствуют
    Реклама: Присутствуют текстовые вставки рекламы
    Видео: AVC/H.264, 1280x536 (2.40: 1), 3810 kbps, 23.976 fps
    Аудио: 48 kHz, AC3 Dolby Digital, 2/0 (L, R) ch, ~384 kbps
    Общее
    Уникальный идентификатор : 207896077748025380926787645380665340851 (0x9C67540158E7803991999C6ABDC0F3B3)
    Полное имя : D: Мир.Юрского.периода.2.2018.TS.720p.NNMClub.mkv
    Формат : Matroska
    Версия формата : Version 4/Version 2
    Размер файла : 3, 46 Гбайт
    Продолжительность : 1 ч. 58 м.
    Режим общего битрейта : Переменный
    Общий поток : 4196 Кбит/сек
    Дата кодирования : UTC 2018-06-07 14: 15: 24
    Программа кодирования : mkvmerge v8.3.0 (\'Over the Horizon\') 64bit
    Библиотека кодирования : libebml v1.3.1 + libmatroska v1.4.2
    Видео
    Идентификатор : 1
    Формат : AVC
    Формат/Информация : Advanced Video Codec
    Профиль формата : High@L4.1
    Настройки формата : CABAC/4 Ref Frames
    Параметр CABAC формата : Да
    Параметр RefFrames формата : 4 кадра
    Идентификатор кодека : V_MPEG4/ISO/AVC
    Продолжительность : 1 ч. 58 м.
    Вид битрейта : Переменный
    Битрейт : 3810 Кбит/сек
    Максимальный битрейт : 4000 Кбит/сек
    Ширина : 1280 пикселей
    Высота : 536 пикселей
    Соотношение сторон : 2, 40: 1
    Режим частоты кадров : Постоянный
    Частота кадров : 23, 976 (24000/1001) кадра/сек
    Стандарт вещания : Component
    Цветовое пространство : YUV
    Субдискретизация насыщенности : 4: 2: 0
    Битовая глубина : 8 бит
    Тип развёртки : Прогрессивная
    Бит/(Пиксели*Кадры) : 0.232
    Размер потока : 3, 14 Гбайт (91%)
    Язык : English
    Default : Да
    Forced : Нет
    Цветовой диапазон : Limited
    Основные цвета : BT.709
    Характеристики трансфера : BT.709
    Коэффициенты матрицы : BT.709
    Аудио
    Идентификатор : 2
    Формат : AC-3
    Формат/Информация : Audio Coding 3
    Идентификатор кодека : A_AC3
    Продолжительность : 1 ч. 58 м.
    Вид битрейта : Постоянный
    Битрейт : 384 Кбит/сек
    Каналы : 2 канала
    Расположение каналов : Front: L R
    Частота : 48, 0 КГц
    Частота кадров : 31, 250 кадров/сек (1536 SPF)
    Битовая глубина : 16 бит
    Метод сжатия : С потерями
    Размер потока : 324 Мбайт (9%)
    Язык : Russian
    ServiceKind/String : Complete Main
    Default : Да
    Forced : Нет

    Скриншоты для ознакомления



    Все одноименные релизы в Клубе
    Время раздачи: 24/7 (до появления первых 3-5 скачавших)


    Онлайн видео Мир Юрского периода 2



    Мир Юрского периода 2/Jurassic World: Fallen Kingdom (2018) TS [H.264/720p-LQ] [AD]
    Рейтинг →
     (голосов: 1, оценка 3/5, голосовать можно 1 раз )

    Другие торренты по теме:

  • Ловушка Юрского периода / Jurassic City (2014) DVDRip [VO]
  • Мир Юрского периода / Jurassic World (2015) WEBRip [1080р] [Трейлер №2] скачать через торрент бесплатно
  • Парк Юрского периода / Jurassic Park (1993-2001) BDRip [H.264 / 1080p] [Трилогия] скачать через торрент бесплатно
  • Парк Юрского периода / Jurassic Park (1993-2001) BDRip [H.264 / 720p] [Трилогия] скачать через торрент бесплатно
  • Michael Giacchino - Мир Юрского периода / Jurassic World (Original Motion Picture Soundtrack) (2015) [AAC|WEB-DL|256 кб / с]<Soundtrack> скачать через торрент бесплатно
  • Мир Юрского периода / Jurassic World (2015) CamRip скачать через торрент бесплатно
  • Мир Юрского периода / Jurassic World (2015) CamRip скачать через торрент бесплатно
  • Мир Юрского периода / Jurassic World (2015) TS скачать через торрент бесплатно


    • Комментарии (0):

      Информация

      Информация

        Посетители, находящиеся в группе Гости, не могут оставлять комментарии в данной новости.

        ↓ Меню




        ↓ Опрос

        Вы добавили сайт в закладки?
        Да
        Нет


        Top 10 за месяц (Фильмы)