.
Авторизация | Регистрация
Хочешь лучшие торренты? Добавь свой email!
Добавить

Торрент скачать бесплатно

  • support: webmaster@btracker.org
» » Шесть / Шестой отряд / Six (2018) WEB-DL [H.264 / 1080p] (сезон 2, серии 1 из 8) OmskBird (обновляемая) [AD] торрент скачать бесплатно


    Шесть / Шестой отряд / Six (2018) WEB-DL [H.264 / 1080p] (сезон 2, серии 1 из 8) OmskBird (обновляемая) [AD] торрент скачать бесплатно

    Опубликовал: Админ | Дата: 1-06-2018, 05:00 | .torrent скачали: 0

    Шесть / Шестой отряд / Six (2018) WEB-DL [H.264 / 1080p] (сезон 2, серии 1 из 8) OmskBird (обновляемая) [AD]Производство: США/A+E Studios, The Weinstein Company
    Жанр: боевик, драма, военный, история
    Режиссер: Микаэл Саломон

    Актеры
    Бэрри Слоун, Кайл Шмид, Хуан Пабло Раба, Эдвин Ходж, Брианна Дэвис, Надин Веласкес, Доминик Адамс, Джессика Гарза, Джошуа Кейдж, Эрик Ладин и др.

    Описание

    Военный сериал Six рассказывает о деятельности т.н. SEAL Team Six - морских котиках ВМС США и вдохновлён славной историей этого специального подразделения. Эта группа быстрого развёртывания принимает участие в самых сложных антитеррористических операциях, проводимых Америкой в различных частях света. В том числе, её бойцы участвовали в уничтожении Бен Ладена. Характерно, что конкретные детали деятельности группы, как правило, не комментируются ни Белым Домом, ни Министерством обороны. Отделение по специальным миссиям, как ещё называют SEAL Team Six в американских СМИ, тесно сотрудничает с ЦРУ, что говорит о специфике его деятельности

    Релиз от: OMSKBIRD records
    Продолжительность: ~00: 45: 00 серия
    Качество видео: WEB-DL
    Перевод: Многоголосый закадровый, профессиональный - OmskBird
    Субтитры: английские
    Реклама: присутствуют аудио вставки рекламы
    Видео: AVC/H.264, 1920х1080 (16: 9), ~14.1 Mbps
    Аудио # 1: AC3, 2 ch, 192 kbps - русский, многоголосый закадровый
    Аудио # 2: AC3, 2 ch, 192 kbps - английский

    General
    Unique ID : 307124368340577355758809265171317521584 (0xE70E007397E07A1570B815F81471FCB0)
    Complete name : G: SIX.S02.1080p.WEB-DL.OmskBirdSIX.S02E01.1080p.WEB-DL.OmskBird.mkv
    Format : Matroska
    Format version : Version 4/Version 2
    File size : 4.68 GiB
    Duration : 45mn 21s
    Overall bit rate : 14.8 Mbps
    Encoded date : UTC 2018-05-31 02: 07: 55
    Writing application : mkvmerge v21.0.0 (\'Tardigrades Will Inherit The Earth\') 64-bit
    Writing library : libebml v1.3.5 + libmatroska v1.4.8
    Cover : Yes
    Attachments : small_cover.jpg/small_cover_land.jpg/cover.jpg/cover_land.jpg
    Video
    ID : 1
    Format : AVC
    Format/Info : Advanced Video Codec
    Format profile : High@L4
    Format settings, CABAC : Yes
    Format settings, ReFrames : 4 frames
    Codec ID : V_MPEG4/ISO/AVC
    Duration : 45mn 21s
    Bit rate : 14.1 Mbps
    Width : 1 920 pixels
    Height : 1 080 pixels
    Display aspect ratio : 16: 9
    Frame rate mode : Constant
    Frame rate : 23.976 (24000/1001) fps
    Color space : YUV
    Chroma subsampling : 4: 2: 0
    Bit depth : 8 bits
    Scan type : Progressive
    Bits/(Pixel*Frame) : 0.283
    Stream size : 4.46 GiB (95%)
    Language : English
    Default : Yes
    Forced : No
    Color range : Limited
    Color primaries : BT.709
    Transfer characteristics : BT.709
    Matrix coefficients : BT.709
    Audio #1
    ID : 2
    Format : AC-3
    Format/Info : Audio Coding 3
    Mode extension : CM (complete main)
    Format settings, Endianness : Big
    Codec ID : A_AC3
    Duration : 45mn 21s
    Bit rate mode : Constant
    Bit rate : 192 Kbps
    Channel(s) : 2 channels
    Channel positions : Front: L R
    Sampling rate : 48.0 KHz
    Frame rate : 31.250 fps (1536 spf)
    Compression mode : Lossy
    Stream size : 62.3 MiB (1%)
    Title : OmskBird
    Language : Russian
    Default : Yes
    Forced : No
    Audio #2
    ID : 3
    Format : AC-3
    Format/Info : Audio Coding 3
    Mode extension : CM (complete main)
    Format settings, Endianness : Big
    Codec ID : A_AC3
    Duration : 45mn 21s
    Bit rate mode : Constant
    Bit rate : 192 Kbps
    Channel(s) : 2 channels
    Channel positions : Front: L R
    Sampling rate : 48.0 KHz
    Frame rate : 31.250 fps (1536 spf)
    Compression mode : Lossy
    Stream size : 62.3 MiB (1%)
    Title : eng
    Language : English
    Default : No
    Forced : No
    Text
    ID : 4
    Format : UTF-8
    Codec ID : S_TEXT/UTF8
    Codec ID/Info : UTF-8 Plain Text
    Title : eng
    Language : English
    Default : No
    Forced : No


    Онлайн видео Шесть



    Шесть/Шестой отряд/Six (2018) WEB-DL [H.264/1080p] (сезон 2, серии 1 из 8) OmskBird (обновляемая) [AD]
    Рейтинг →
     (голосов: 1, оценка 5/5, голосовать можно 1 раз )

    Другие торренты по теме:

  • Шесть / Шестой отряд / Six (2017) WEB-DLRip (сезон 1, серии 1-2 из 8) OMSKBIRD (обновляемая)
  • Шесть / Шестой отряд / Six (2017) HDTVRip [H.264 / 720p-LQ] (сезон 1, серии 1-2 из 8) Jaskier (обновляемая)


    • Комментарии (0):

      Информация

      Информация

        Посетители, находящиеся в группе Гости, не могут оставлять комментарии в данной новости.

        ↓ Меню




        ↓ Опрос

        Вы добавили сайт в закладки?
        Да
        Нет


        Top 10 за месяц (Фильмы)