.
Авторизация | Регистрация
Хочешь лучшие торренты? Добавь свой email!
Добавить

Торрент скачать бесплатно

  • support: webmaster@btracker.org
» » Свингеры / Свiнгери (2018) WEB-DLRip [UKR / RU Sub] торрент скачать бесплатно


    Свингеры / Свiнгери (2018) WEB-DLRip [UKR / RU Sub] торрент скачать бесплатно

    Опубликовал: Админ | Дата: 1-06-2018, 05:00 | .torrent скачали: 0

    Свингеры / Свiнгери (2018) WEB-DLRip [UKR / RU Sub]Производство: Украина, Латвия
    Жанр: Комедия
    Режиссер: Андрес Екис

    Актеры
    Ольга Полякова, Даша Астафьева, Вячеслав Довженко, Михаил Кукуюк, Алексей Вертинский, Анна Саливанчук

    Описание

    Состоятельный бизнесмен Игорь скучает в компании своей девушки Илоны — светской львицы, которая больше его самого любит деньги и хочет стать дизайнером за его счёт. Между тем в хрущёвку возвращается с работы врач-пульмонолог Андрей. Его жена Ирина требует секса, на который у него нет ни сил, ни желания. 10 лет в браке убили страсть.
    Игорь и Ирина подстрекают своих партнёров прибегнуть к сексуальному эксперименту — свингерскому вечеру. Что будет, если эти пары поменяются партнёрами?

    Рейтинг MPAA: R (лицам до 17 лет обязательно присутствие взрослого)
    Дата мировой премьеры: 1 января 2018
    Продолжительность: 01: 37: 27
    Качество видео: WEB-DLRip
    Перевод: Отсутствует
    Язык озвучки: Украинский
    Субтитры: Русские (full)
    Видео: Xvid, 720х304, ~1761 kbps
    Аудио: AC3, 2 ch, 192 kbps

    Общее
    Полное имя : D: ТоррентыСвингеры.2018.WEB-DLRip.avi
    Формат : AVI
    Формат/Информация : Audio Video Interleave
    Размер файла : 1, 34 Гбайт
    Продолжительность : 1 ч. 37 м.
    Общий поток : 1963 Кбит/сек
    Программа кодирования : VirtualDubModRus 1.5.10.2 (build 2542/release)
    Библиотека кодирования : VirtualDubMod build 2542/release
    Видео
    Идентификатор : 0
    Формат : MPEG-4 Visual
    Профиль формата : Advanced Simple@L5
    Настройки формата : BVOP2
    Параметр BVOP формата : 2
    Параметр QPel формата : Нет
    Параметр GMC формата : Без точки перехода
    Параметр матрицы формата : Default (H.263)
    Режим смешивания : Сжатый битовый поток
    Идентификатор кодека : XVID
    Идентификатор кодека/Подсказка : XviD
    Продолжительность : 1 ч. 37 м.
    Битрейт : 1761 Кбит/сек
    Ширина : 720 пикселей
    Высота : 304 пикселя
    Соотношение сторон : 2, 35: 1
    Частота кадров : 24, 000 кадра/сек
    Цветовое пространство : YUV
    Субдискретизация насыщенности : 4: 2: 0
    Битовая глубина : 8 бит
    Тип развёртки : Прогрессивная
    Метод сжатия : С потерями
    Бит/(Пиксели*Кадры) : 0.335
    Размер потока : 1, 20 Гбайт (90%)
    Библиотека кодирования : XviD 67
    Аудио
    Идентификатор : 1
    Формат : AC-3
    Формат/Информация : Audio Coding 3
    Идентификатор кодека : 2000
    Продолжительность : 1 ч. 37 м.
    Вид битрейта : Постоянный
    Битрейт : 192 Кбит/сек
    Каналы : 2 канала
    Расположение каналов : Front: L R
    Частота : 48, 0 КГц
    Частота кадров : 31, 250 кадров/сек (1536 SPF)
    Битовая глубина : 16 бит
    Метод сжатия : С потерями
    Размер потока : 134 Мбайт (10%)
    Выравнивание : Разделение по промежуткам
    Продолжительность промежутка : 42 мс. (1, 00 видеокадр)
    Время предзагрузки промежутка : 500 мс.
    ServiceKind/String : Complete Main

    Скриншоты для ознакомления



    Все одноименные релизы в Клубе
    Время раздачи: с 10.00 до 21.00 (до появления первых 3-5 скачавших)


    Онлайн видео Свингеры



    Свингеры/Свiнгери (2018) WEB-DLRip [UKR/RU Sub]
    Рейтинг →
     (голосов: 1, оценка 4/5, голосовать можно 1 раз )

    Другие торренты по теме:

  • Свингеры / Свiнгери / Swingeri (2018) WEB-DL [H.264 / 1080p-LQ] [UKR / RU Sub]


    • Комментарии (0):

      Информация

      Информация

        Посетители, находящиеся в группе Гости, не могут оставлять комментарии в данной новости.

        ↓ Меню




        ↓ Опрос

        Вы добавили сайт в закладки?
        Да
        Нет


        Top 10 за месяц (Фильмы)