.
Авторизация | Регистрация
Хочешь лучшие торренты? Добавь свой email!
Добавить

Торрент скачать бесплатно

  • support: webmaster@btracker.org
» » На износ / Burn Out (2017) WEBRip [H.264 / 1080p-LQ] [AVO] торрент скачать бесплатно


    На износ / Burn Out (2017) WEBRip [H.264 / 1080p-LQ] [AVO] торрент скачать бесплатно

    Опубликовал: Админ | Дата: 1-06-2018, 05:00 | .torrent скачали: 0

    На износ / Burn Out (2017) WEBRip [H.264 / 1080p-LQ] [AVO]Производство: Франция, Бельгия, 2425 Films, Wy Productions, Gaumont
    Жанр: Боевик, Триллер
    Режиссер: Ян Гозлан

    Актеры
    Мэнон Азем, Франсуа Сивиль, Самуэль Жуи, Нарцисс Мамэ, Оливье Рабурден

    Описание

    Молодой гонщик по имени Тони не видит жизни без мотоциклетных гонок. Однажды ему выпадает шанс выступать за Дукати, но для этого ему нужно усердно тренироваться. Но дело усложняет Лейла, бывшая подруга нашего героя, которая попала в переплет. Чтобы вытащить подругу из беды, Тони соглашается поработать на наркоторговцев. От этого всего у Тони идет кругом голова, заставляя его работать буквально на износ.

    Релиз от: BadBajo
    Продолжительность: 01: 43: 12
    Качество видео: WEBRip
    Перевод: Авторский (одноголосый, закадровый) - А.Важенин (BadBajo)
    Автор перевода: BadBajo
    Субтитры: Отсутствуют
    Видео: AVC/H.264, 1920х800, ~2 150 Kbps
    Аудио: AAC, 2 ch, 129Kbps l Русский (BadBajo)
    Аудио: AAC, 2 ch, 144Kbps l Французский

    General
    Unique ID : 295279375075120522953264031961465979617 (0xDE24BD31D6716808E19B26A2CE0B82E1)
    Complete name : Burn.Out.2017.1080p.WEBRip.x264_rus_BadBajo.mkv
    Format : Matroska
    Format version : Version 4/Version 2
    File size : 1.75 GiB
    Duration : 1 h 43 min
    Overall bit rate : 2 427 kb/s
    Movie name : Burn.Out.2017.1080p.WEBRip.x264_rus_BadBajo
    Encoded date : UTC 2018-05-31 03: 52: 51
    Writing application : mkvmerge v20.0.0 (\'I Am The Sun\') 64-bit
    Writing library : libebml v1.3.5 + libmatroska v1.4.8
    Cover : Yes
    Attachments : COVER.jpg
    Video
    ID : 1
    Format : AVC
    Format/Info : Advanced Video Codec
    Format profile : High@L4.1
    Format settings : CABAC/4 Ref Frames
    Format settings, CABAC : Yes
    Format settings, ReFrames : 4 frames
    Codec ID : V_MPEG4/ISO/AVC
    Duration : 1 h 43 min
    Bit rate : 2 150 kb/s
    Width : 1 920 pixels
    Height : 800 pixels
    Display aspect ratio : 2.40: 1
    Frame rate mode : Constant
    Frame rate : 24.000 FPS
    Color space : YUV
    Chroma subsampling : 4: 2: 0
    Bit depth : 8 bits
    Scan type : Progressive
    Bits/(Pixel*Frame) : 0.058
    Stream size : 1.55 GiB (89%)
    Writing library : x264 core 152
    Encoding settings : cabac=1/ref=4/deblock=1: -1: -1/analyse=0x3: 0x133/me=umh/subme=9/psy=1/psy_rd=1.00: 0.15/mixed_ref=1/me_range=24/chroma_me=1/trellis=2/8x8dct=1/cqm=0/deadzone=21, 11/fast_pskip=0/chroma_qp_offset=-3/threads=12/lookahead_threads=1/sliced_threads=0/nr=0/decimate=1/interlaced=0/bluray_compat=0/constrained_intra=0/bframes=3/b_pyramid=2/b_adapt=2/b_bias=0/direct=3/weightb=1/open_gop=0/weightp=2/keyint=250/keyint_min=23/scenecut=40/intra_refresh=0/rc_lookahead=60/rc=2pass/mbtree=1/bitrate=2150/ratetol=1.0/qcomp=0.60/qpmin=0/qpmax=69/qpstep=4/cplxblur=20.0/qblur=0.5/vbv_maxrate=31250/vbv_bufsize=31250/nal_hrd=none/filler=0/ip_ratio=1.40/aq=1: 1.00
    Default : Yes
    Forced : No
    Audio #1
    ID : 2
    Format : AAC
    Format/Info : Advanced Audio Codec
    Format profile : LC
    Codec ID : A_AAC-2
    Duration : 1 h 43 min
    Bit rate : 129 kb/s
    Channel(s) : 2 channels
    Channel positions : Front: L R
    Sampling rate : 48.0 kHz
    Frame rate : 46.875 FPS (1024 SPF)
    Compression mode : Lossy
    Delay relative to video : -43 ms
    Stream size : 95.2 MiB (5%)
    Title : Burn.Out.2017_rus_BadBajo
    Language : Russian
    Default : Yes
    Forced : Yes
    Audio #2
    ID : 3
    Format : AAC
    Format/Info : Advanced Audio Codec
    Format profile : LC
    Codec ID : A_AAC-2
    Duration : 1 h 43 min
    Bit rate : 144 kb/s
    Channel(s) : 2 channels
    Channel positions : Front: L R
    Sampling rate : 48.0 kHz
    Frame rate : 46.875 FPS (1024 SPF)
    Compression mode : Lossy
    Delay relative to video : -43 ms
    Stream size : 108 MiB (6%)
    Title : Burn.Out.2017_fre
    Language : French
    Default : No
    Forced : No


    Онлайн видео На износ



    На износ/Burn Out (2017) WEBRip [H.264/1080p-LQ] [AVO]
    Рейтинг →
     (голосов: 1, оценка 4/5, голосовать можно 1 раз )

    Другие торренты по теме:



      Комментарии (0):

      Информация

      Информация

        Посетители, находящиеся в группе Гости, не могут оставлять комментарии в данной новости.

        ↓ Меню




        ↓ Опрос

        Вы добавили сайт в закладки?
        Да
        Нет


        Top 10 за месяц (Фильмы)