.
Авторизация | Регистрация
Хочешь лучшие торренты? Добавь свой email!
Добавить

Торрент скачать бесплатно

  • support: webmaster@btracker.org
» » Попутчик / The Hitcher (1986) DVDRip [H.264] торрент скачать бесплатно


    Попутчик / The Hitcher (1986) DVDRip [H.264] торрент скачать бесплатно

    Опубликовал: Админ | Дата: 1-06-2018, 05:00 | .torrent скачали: 0

    Попутчик / The Hitcher (1986) DVDRip [H.264]Производство: США/HBO Films, Silver Screen Partners
    Жанр: Триллер
    Режиссер: Роберт Хармон
    Продюсер: Дэвид Бомбик, Кип Оман, Эдвард С. Фельдман

    Актеры
    Рутгер Хауэр, Си Томас Хауэлл, Дженнифер Джейсон Ли, Джеффри ДеМанн, Джон М. Джексон, Билли Грин Буш, Джек Тибо, Армин Шимерман, Джин Дэвис, Джон Ван Несс

    Описание

    Зловещий попутчик, сеющий смерть на своем пути, голосует на дороге и останавливает молодого парня. Тот соглашается его подвести в ненастье, не думая, какой опасности он себя подвергает.

    Возраст: 16+ (зрителям, достигшим 16 лет)
    Рейтинг MPAA: R (лицам до 17 лет обязательно присутствие взрослого)
    Релиз от: Охрана (NNMCLUB)
    Продолжительность: 01: 33: 27
    Качество видео: DVDRip
    Перевод: Многоголосый закадровый, двухголосый закадровый, авторский
    Субтитры: Русские, английские
    Видео: AVC/H.264, 720x304, ~2050 Kbps
    Аудио 1: Русский, AC3, 2 ch, 192 Kbps, 48.0 kHz (DVO, Екатеринбург Арт)
    Аудио 2: Русский, AC3, 2 ch, 192 Kbps, 48.0 kHz (DVO, НТВ ранний)
    Аудио 3: Русский, AC3, 2 ch, 128 Kbps, 48.0 kHz (МVO, НТВ поздний)
    Аудио 4: Русский, AC3, 2 ch, 192 Kbps, 48.0 kHz (AVO, Ю.Живов)
    Аудио 5: Русский, AC3, 2 ch, 192 Kbps, 48.0 kHz (AVO, Ю.Сербин)
    Аудио 6: Английский, AC3, 2 ch, 192 Kbps, 48.0 kHz (Оригинал)

    Общее
    Уникальный идентификатор : 209706823994438516012065594009038320520 (0x9DC410B01DCD9D11953B316DF14F7388)
    Полное имя : F: DownloadsПопутчик. 1986. NNMCLUB.mkv
    Формат : Matroska
    Версия формата : Version 4/Version 2
    Размер файла : 2, 05 Гбайт
    Продолжительность : 1 ч. 33 м.
    Общий поток : 3141 Кбит/сек
    Дата кодирования : UTC 2018-05-27 13: 47: 09
    Программа кодирования : mkvmerge v7.9.0 (\'Birds\') 64bit
    Библиотека кодирования : libebml v1.3.1 + libmatroska v1.4.2
    Видео
    Идентификатор : 1
    Формат : AVC
    Формат/Информация : Advanced Video Codec
    Профиль формата : High@L4.1
    Настройки формата : CABAC/12 Ref Frames
    Параметр CABAC формата : Да
    Параметр RefFrames формата : 12 кадров
    Идентификатор кодека : V_MPEG4/ISO/AVC
    Продолжительность : 1 ч. 33 м.
    Битрейт : 2050 Кбит/сек
    Ширина : 720 пикселей
    Высота : 304 пикселя
    Соотношение сторон : 2, 35: 1
    Режим частоты кадров : Постоянный
    Частота кадров : 25, 000 кадров/сек
    Цветовое пространство : YUV
    Субдискретизация насыщенности : 4: 2: 0
    Битовая глубина : 8 бит
    Тип развёртки : Прогрессивная
    Бит/(Пиксели*Кадры) : 0.375
    Размер потока : 1, 34 Гбайт (65%)
    Заголовок : The Hitcher
    Библиотека кодирования : x264 core 125 r2208 d9d2288
    Настройки программы : cabac=1/ref=12/deblock=1: -1: -1/analyse=0x3: 0x133/me=umh/subme=10/psy=1/psy_rd=1.00: 0.10/mixed_ref=1/me_range=32/chroma_me=1/trellis=2/8x8dct=1/cqm=0/deadzone=21, 11/fast_pskip=0/chroma_qp_offset=-3/threads=6/lookahead_threads=1/sliced_threads=0/nr=0/decimate=0/interlaced=0/bluray_compat=0/constrained_intra=0/bframes=7/b_pyramid=2/b_adapt=2/b_bias=0/direct=3/weightb=1/open_gop=0/weightp=2/keyint=250/keyint_min=25/scenecut=40/intra_refresh=0/rc_lookahead=60/rc=2pass/mbtree=1/bitrate=2050/ratetol=1.0/qcomp=0.60/qpmin=0/qpmax=69/qpstep=4/cplxblur=20.0/qblur=0.5/ip_ratio=1.40/aq=1: 1.00
    Язык : English
    Default : Да
    Forced : Нет
    Аудио #1
    Идентификатор : 2
    Формат : AC-3
    Формат/Информация : Audio Coding 3
    Идентификатор кодека : A_AC3
    Продолжительность : 1 ч. 33 м.
    Вид битрейта : Постоянный
    Битрейт : 192 Кбит/сек
    Каналы : 2 канала
    Расположение каналов : Front: L R
    Частота : 48, 0 КГц
    Частота кадров : 31, 250 кадров/сек (1536 SPF)
    Битовая глубина : 16 бит
    Метод сжатия : С потерями
    Размер потока : 128 Мбайт (6%)
    Заголовок : Двухголосый закадровый, Екатеринбург Арт
    Язык : Russian
    ServiceKind/String : Complete Main
    Default : Да
    Forced : Нет
    Аудио #2
    Идентификатор : 3
    Формат : AC-3
    Формат/Информация : Audio Coding 3
    Идентификатор кодека : A_AC3
    Продолжительность : 1 ч. 33 м.
    Вид битрейта : Постоянный
    Битрейт : 192 Кбит/сек
    Каналы : 2 канала
    Расположение каналов : Front: L R
    Частота : 48, 0 КГц
    Частота кадров : 31, 250 кадров/сек (1536 SPF)
    Битовая глубина : 16 бит
    Метод сжатия : С потерями
    Размер потока : 128 Мбайт (6%)
    Заголовок : Двухголосый закадровый, НТВ ранний
    Язык : Russian
    ServiceKind/String : Complete Main
    Default : Нет
    Forced : Нет
    Аудио #3
    Идентификатор : 4
    Формат : AC-3
    Формат/Информация : Audio Coding 3
    Идентификатор кодека : A_AC3
    Продолжительность : 1 ч. 33 м.
    Вид битрейта : Постоянный
    Битрейт : 128 Кбит/сек
    Каналы : 2 канала
    Расположение каналов : Front: L R
    Частота : 48, 0 КГц
    Частота кадров : 31, 250 кадров/сек (1536 SPF)
    Битовая глубина : 16 бит
    Метод сжатия : С потерями
    Размер потока : 85, 5 Мбайт (4%)
    Заголовок : Многоголосый закадровый, НТВ поздний
    Язык : Russian
    ServiceKind/String : Complete Main
    Default : Нет
    Forced : Нет
    Аудио #4
    Идентификатор : 5
    Формат : AC-3
    Формат/Информация : Audio Coding 3
    Идентификатор кодека : A_AC3
    Продолжительность : 1 ч. 33 м.
    Вид битрейта : Постоянный
    Битрейт : 192 Кбит/сек
    Каналы : 2 канала
    Расположение каналов : Front: L R
    Частота : 48, 0 КГц
    Частота кадров : 31, 250 кадров/сек (1536 SPF)
    Битовая глубина : 16 бит
    Метод сжатия : С потерями
    Размер потока : 128 Мбайт (6%)
    Заголовок : Авторский, Ю.Живов
    Язык : Russian
    ServiceKind/String : Complete Main
    Default : Нет
    Forced : Нет
    Аудио #5
    Идентификатор : 6
    Формат : AC-3
    Формат/Информация : Audio Coding 3
    Идентификатор кодека : A_AC3
    Продолжительность : 1 ч. 33 м.
    Вид битрейта : Постоянный
    Битрейт : 192 Кбит/сек
    Каналы : 2 канала
    Расположение каналов : Front: L R
    Частота : 48, 0 КГц
    Частота кадров : 31, 250 кадров/сек (1536 SPF)
    Битовая глубина : 16 бит
    Метод сжатия : С потерями
    Размер потока : 128 Мбайт (6%)
    Заголовок : Авторский, Ю.Сербин
    Язык : Russian
    ServiceKind/String : Complete Main
    Default : Нет
    Forced : Нет
    Аудио #6
    Идентификатор : 7
    Формат : AC-3
    Формат/Информация : Audio Coding 3
    Идентификатор кодека : A_AC3
    Продолжительность : 1 ч. 33 м.
    Вид битрейта : Постоянный
    Битрейт : 192 Кбит/сек
    Каналы : 2 канала
    Расположение каналов : Front: L R
    Частота : 48, 0 КГц
    Частота кадров : 31, 250 кадров/сек (1536 SPF)
    Битовая глубина : 16 бит
    Метод сжатия : С потерями
    Размер потока : 128 Мбайт (6%)
    Заголовок : Оригинал
    Язык : English
    ServiceKind/String : Complete Main
    Default : Нет
    Forced : Нет
    Текст #1
    Идентификатор : 8
    Формат : UTF-8
    Идентификатор кодека : S_TEXT/UTF8
    Идентификатор кодека/Информация : UTF-8 Plain Text
    Продолжительность : 1 ч. 28 м.
    Битрейт : 40 бит/сек
    ElementCount : 563
    Размер потока : 26, 0 Кбайт (0%)
    Заголовок : Full
    Язык : Russian
    Default : Нет
    Forced : Нет
    Текст #2
    Идентификатор : 9
    Формат : UTF-8
    Идентификатор кодека : S_TEXT/UTF8
    Идентификатор кодека/Информация : UTF-8 Plain Text
    Продолжительность : 1 ч. 25 м.
    Битрейт : 23 бит/сек
    ElementCount : 542
    Размер потока : 14, 7 Кбайт (0%)
    Заголовок : Full
    Язык : English
    Default : Нет
    Forced : Нет

    Скриншоты для ознакомления




    Все одноименные релизы в Клубе
    Время раздачи: с 13: 00 до 01: 00 МСК, выходные круглосуточно (до появления первых 3-5 скачавших)


    Онлайн видео Попутчик



    Попутчик/The Hitcher (1986) DVDRip [H.264]
    Рейтинг →
     (голосов: 1, оценка 5/5, голосовать можно 1 раз )

    Другие торренты по теме:

  • Попутчик / The Hitcher (2007) BDRip [H.264 / 1080p-LQ]


    • Комментарии (0):

      Информация

      Информация

        Посетители, находящиеся в группе Гости, не могут оставлять комментарии в данной новости.

        ↓ Меню




        ↓ Опрос

        Вы добавили сайт в закладки?
        Да
        Нет


        Top 10 за месяц (Фильмы)