.
Авторизация | Регистрация
Хочешь лучшие торренты? Добавь свой email!
Добавить

Торрент скачать бесплатно

  • support: webmaster@btracker.org
» » Ну, здравствуй, Оксана Соколова! (2016) WEBRip [H.264 / 1080p-LQ] торрент скачать бесплатно


    Ну, здравствуй, Оксана Соколова! (2016) WEBRip [H.264 / 1080p-LQ] торрент скачать бесплатно

    Опубликовал: Админ | Дата: 1-06-2018, 05:00 | .torrent скачали: 0

    Ну, здравствуй, Оксана Соколова! (2016) WEBRip [H.264 / 1080p-LQ]Производство: Россия
    Жанр: Короткометражный, комедия
    Режиссер: Кирилл Васильев

    Актеры
    Виктор Добронравов, Валентина Мазунина, Федор Липатов, Максим Белов, Сергей Бурунов, Александр Стефанцов, Алексей Медведев, Александра Верхошанская, Наталья Винокурова

    Описание

    Актёр-неудачник по имени Илья получает работу своей мечты. Его утверждают на ведущего программы Мужское мнение, выходящей в прайм-тайм на Мужском радио. Наш герой устраивает вечеринку, а на утро понимает, что не может говорить — пропал голос. В панике, чтобы вернуть голос, Илья готов на всё. Он обращается к врачу, и тот делает ему сомнительный укол в голосовые связки. Врач также просит героя не разговаривать ближайшие полчаса. Илья мчится на эфир в надежде, что проблема решена…

    Возраст: 18+ (зрителям, достигшим 18 лет. запрещено для детей)
    Релиз от: Aлexandr
    Продолжительность: 00: 23: 21
    Качество видео: WEBRip
    Субтитры: Отсутствуют
    Видео: AVC/H.264, 1920x804 (2.40: 1), ~1495 Kbps
    Аудио: AC3, 2 ch, 192 Kbps

    Общее
    Уникальный идентификатор : 112174449973405286698742716713511126206 (0x5464036261085811F9894CE34FFB84BE)
    Полное имя : D: Ну, здравствуй, Оксана Соколова (2016).by.Алехаndr.mkv
    Формат : Matroska
    Версия формата : Version 4/Version 2
    Размер файла : 282 Мбайт
    Продолжительность : 23 м. 21 с.
    Общий поток : 1689 Кбит/сек
    Дата кодирования : UTC 2018-05-31 13: 19: 25
    Программа кодирования : mkvmerge v23.0.0 (\'The Bride Said No\') 64-bit
    Библиотека кодирования : libebml v1.3.6 + libmatroska v1.4.9/Lavf57.71.100
    Видео
    Идентификатор : 1
    Формат : AVC
    Формат/Информация : Advanced Video Codec
    Профиль формата : High@L4
    Настройки формата : CABAC/3 Ref Frames
    Параметр CABAC формата : Да
    Параметр RefFrames формата : 3 кадра
    Идентификатор кодека : V_MPEG4/ISO/AVC
    Продолжительность : 23 м. 21 с.
    Битрейт : 1495 Кбит/сек
    Ширина : 1920 пикселей
    Высота : 804 пикселя
    Соотношение сторон : 2, 40: 1
    Режим частоты кадров : Постоянный
    Частота кадров : 24, 000 кадра/сек
    Цветовое пространство : YUV
    Субдискретизация насыщенности : 4: 2: 0
    Битовая глубина : 8 бит
    Тип развёртки : Прогрессивная
    Бит/(Пиксели*Кадры) : 0.040
    Размер потока : 250 Мбайт (89%)
    Default : Да
    Forced : Нет
    Цветовой диапазон : Limited
    Основные цвета : BT.709
    Характеристики трансфера : BT.709
    Коэффициенты матрицы : BT.709
    Аудио
    Идентификатор : 2
    Формат : AC-3
    Формат/Информация : Audio Coding 3
    Идентификатор кодека : A_AC3
    Продолжительность : 23 м. 21 с.
    Вид битрейта : Постоянный
    Битрейт : 192 Кбит/сек
    Каналы : 2 канала
    Расположение каналов : Front: L R
    Частота : 48, 0 КГц
    Частота кадров : 31, 250 кадров/сек (1536 SPF)
    Битовая глубина : 16 бит
    Метод сжатия : С потерями
    Размер потока : 32, 1 Мбайт (11%)
    Язык : English
    ServiceKind/String : Complete Main
    Default : Да
    Forced : Нет

    Скриншоты для ознакомления



    Все одноименные релизы в Клубе
    Время раздачи: 24/7 (круглосуточно) (до появления первых 3-5 скачавших)


    Онлайн видео Ну, здравствуй, Оксана Соколова! (2016) WEBRip [H.264



    Ну, здравствуй, Оксана Соколова! (2016) WEBRip [H.264/1080p-LQ]
    Рейтинг →
     (голосов: 1, оценка 5/5, голосовать можно 1 раз )

    Другие торренты по теме:

  • Ну, здравствуй, Оксана Соколова! (2018) WEB-DL [H.264 / 1080p-LQ]
  • Ну, здравствуй, Оксана Соколова! (2018) WEB-DLRip
  • Ну, здравствуй, Оксана Соколова! (2018) WEB-DL [1080p] ATV
  • Ну, здравствуй, Оксана Соколова! (2018) WEB-DL [720p] ATV
  • Ну, здравствуй, Оксана Соколова! (2018) WEB-DLRip [576p] iPad
  • Ну, здравствуй, Оксана Соколова! (2018) WEB-DLRip [H.264]


    • Комментарии (0):

      Информация

      Информация

        Посетители, находящиеся в группе Гости, не могут оставлять комментарии в данной новости.

        ↓ Меню




        ↓ Опрос

        Вы добавили сайт в закладки?
        Да
        Нет


        Top 10 за месяц (Фильмы)