.
Авторизация | Регистрация
Хочешь лучшие торренты? Добавь свой email!
Добавить

Торрент скачать бесплатно

  • support: webmaster@btracker.org
» » Ёф (2017) WEB-DL [H.264 / 1080p-LQ] торрент скачать бесплатно


    Ёф (2017) WEB-DL [H.264 / 1080p-LQ] торрент скачать бесплатно

    Опубликовал: Админ | Дата: 1-06-2018, 05:00 | .torrent скачали: 0

    Ёф (2017) WEB-DL [H.264 / 1080p-LQ]Производство: Россия
    Жанр: Короткометражный, комедия, драма
    Режиссер: Николай Сидоров-Французов

    Актеры
    Игорь Бычков, Полина Виторган, Георгий Кудренко, Ольга Добрина, Татьяна Буланова

    Описание

    Это история о том, как с окончанием лета пришло окончание одной Юности. Деревенский Серега смотрит на мир через дырочку в плакате Татьяны Булановой. Горожанке Насте будто бы только предстоит посмотреть на мир. Серега вместе с Пашком и Рыжей Машкой утаскивают Настю в путешествие по своей юности, которая Ёф. Из нее очень трудно выпутаться, она никогда не забудется, не умолкнет, словно женская песня из 90х.

    Возраст: 18+ (зрителям, достигшим 18 лет. запрещено для детей)
    Релиз от: Aлexandr
    Продолжительность: 00: 30: 03
    Качество видео: WEB-DL
    Субтитры: Отсутствуют
    Видео: AVC/H.264, 1920x800 (2.40: 1), ~4230 Kbps
    Аудио: AC3, 2 ch, 192 Kbps

    Общее
    Уникальный идентификатор : 223048261918255099280743076891816146859 (0xA7CD885CE07E689E76172441BDC0B7AB)
    Полное имя : D: Ёф (2017).by.Алехаndr.mkv
    Формат : Matroska
    Версия формата : Version 4/Version 2
    Размер файла : 951 Мбайт
    Продолжительность : 30 м. 3 с.
    Общий поток : 4423 Кбит/сек
    Дата кодирования : UTC 2018-05-31 13: 19: 43
    Программа кодирования : mkvmerge v23.0.0 (\'The Bride Said No\') 64-bit
    Библиотека кодирования : libebml v1.3.6 + libmatroska v1.4.9/Lavf57.71.100
    Видео
    Идентификатор : 1
    Формат : AVC
    Формат/Информация : Advanced Video Codec
    Профиль формата : Main@L4
    Настройки формата : CABAC/1 Ref Frames
    Параметр CABAC формата : Да
    Параметр RefFrames формата : 1 кадр
    Параметр GOP формата : M=1, N=25
    Идентификатор кодека : V_MPEG4/ISO/AVC
    Продолжительность : 30 м. 3 с.
    Битрейт : 4228 Кбит/сек
    Ширина : 1920 пикселей
    Высота : 800 пикселей
    Соотношение сторон : 2, 40: 1
    Режим частоты кадров : Постоянный
    Частота кадров : 25, 000 кадров/сек
    Цветовое пространство : YUV
    Субдискретизация насыщенности : 4: 2: 0
    Битовая глубина : 8 бит
    Тип развёртки : Прогрессивная
    Бит/(Пиксели*Кадры) : 0.110
    Размер потока : 909 Мбайт (96%)
    Default : Да
    Forced : Нет
    Аудио
    Идентификатор : 2
    Формат : AC-3
    Формат/Информация : Audio Coding 3
    Идентификатор кодека : A_AC3
    Продолжительность : 30 м. 3 с.
    Вид битрейта : Постоянный
    Битрейт : 192 Кбит/сек
    Каналы : 2 канала
    Расположение каналов : Front: L R
    Частота : 48, 0 КГц
    Частота кадров : 31, 250 кадров/сек (1536 SPF)
    Битовая глубина : 16 бит
    Метод сжатия : С потерями
    Размер потока : 41, 3 Мбайт (4%)
    ServiceKind/String : Complete Main
    Default : Да
    Forced : Нет

    Скриншоты для ознакомления



    Все одноименные релизы в Клубе
    Время раздачи: 24/7 (круглосуточно) (до появления первых 3-5 скачавших)


    Онлайн видео Ёф (2017) WEB-DL [H.264



    Ёф (2017) WEB-DL [H.264/1080p-LQ]
    Рейтинг →
     (голосов: 1, оценка 4/5, голосовать можно 1 раз )

    Другие торренты по теме:

  • Мистериум. Тьма в бутылке / Flaskepost fra P (2016) WEB-DL [H.264 / 1080p-LQ]
  • Мистериум. Тьма в бутылке / Flaskepost fra P (2016) WEB-DL [H.264 / 1080p-LQ]
  • Голубь сидел на ветке, размышляя о бытии / En duva satt på en gren och funderade på tillvaron (2014) WEB-DL [H.264 / 1080p-LQ] [SW / RU Sub] скачать через торрент бесплатно
  • В розыске / Сигнал всем постам / A.P.B. (2016) WEB-DL [H.264 / 720p-LQ] (сезон 1, серия 1 из 12) BaibaKo (обновляемая)
  • В розыске / Сигнал всем постам / A.P.B. (2016) WEB-DL [H.264 / 1080p-LQ] (сезон 1, серия 1 из 12) BaibaKo (обновляемая)
  • В розыске / Сигнал всем постам / A.P.B. (2016) WEB-DL [H.264 / 1080p-LQ] (сезон 1, серии 1 из 12) OmskBird (обновляемая)


    • Комментарии (0):

      Информация

      Информация

        Посетители, находящиеся в группе Гости, не могут оставлять комментарии в данной новости.

        ↓ Меню




        ↓ Опрос

        Вы добавили сайт в закладки?
        Да
        Нет


        Top 10 за месяц (Фильмы)