.
Авторизация | Регистрация
Хочешь лучшие торренты? Добавь свой email!
Добавить

Торрент скачать бесплатно

  • support: webmaster@btracker.org
» » Охота на человека / Manhunt (2017) BDRip [H.264 / 720p] торрент скачать бесплатно


    Охота на человека / Manhunt (2017) BDRip [H.264 / 720p] торрент скачать бесплатно

    Опубликовал: Админ | Дата: 1-06-2018, 05:00 | .torrent скачали: 0

    Охота на человека / Manhunt (2017) BDRip [H.264 / 720p]Производство: Китай, Гонконг
    Жанр: Боевик, Триллер, Криминал
    Режиссер: Джон Ву

    Актеры
    Чжан Ханьюй, Стефи Ци, Масахару Фукуяма, Ха Джи-вон, Дзюн Кунимура, Анджелес Ву, Наото Такэнака, Ясуаки Курата, Такуми Саито, Нанами Сакураба

    Описание

    Адвокат, обвиняемый в убийстве, которого он не совершал, скрывается от преследования полиции и наёмных убийц и пытается доказать свою невиновность.

    Релиз от: k.e.n MegaPeer
    Продолжительность: 01: 49: 13
    Качество видео: BDRip 720p
    Перевод: Авторский (одноголосый, закадровый) Юрий Живов
    Субтитры: Английские
    Видео: AVC, 1280x536 (2.35: 1), 24.000 fps, 4 834 Kbps (0.294 bit/pixel)
    Аудио #1: AC-3, 48.0 KHz, 6 ch, 448 Kbps, CBR (Russian)
    Аудио #2: AC-3, 48.0 KHz, 6 ch, 448 Kbps, CBR (Chinese)

    Полное имя : D: ФИЛЬМЫОхота на человека.2017 (реж.Джон Ву).k.e.n MegaPeer.mkv
    Формат : Matroska
    Версия формата : Version 2
    Размер файла : 4, 36 Гбайт
    Продолжительность : 1 ч. 49 м.
    Общий поток : 5721 Кбит/сек
    Дата кодирования : UTC 2018-05-29 15: 21: 33
    Программа кодирования : mkvmerge v5.3.0 (\'I could have danced\') built on Feb 9 2012 10: 38: 07
    Библиотека кодирования : libebml v1.2.3 + libmatroska v1.3.0
    Attachments : poster (2).png
    Видео
    Идентификатор : 1
    Формат : AVC
    Формат/Информация : Advanced Video Codec
    Профиль формата : High@L4.1
    Параметр CABAC формата : Да
    Параметр ReFrames формата : 12 кадров
    Идентификатор кодека : V_MPEG4/ISO/AVC
    Продолжительность : 1 ч. 49 м.
    Битрейт : 4834 Кбит/сек
    Ширина : 1280 пикселей
    Высота : 536 пикселей
    Соотношение сторон : 2, 40: 1
    Режим частоты кадров : Постоянный
    Частота кадров : 24, 000 кадра/сек
    Цветовое пространство : YUV
    Субдискретизация насыщенности : 4: 2: 0
    Битовая глубина : 8 бит
    Тип развёртки : Прогрессивная
    Бит/(Пиксели*Кадры) : 0.294
    Размер потока : 3, 59 Гбайт (82%)
    Библиотека кодирования : x264 core 146 r2538 121396c
    Настройки программы : cabac=1/ref=12/deblock=1: -3: -3/analyse=0x3: 0x133/me=umh/subme=11/psy=1/psy_rd=1.00: 0.10/mixed_ref=1/me_range=32/chroma_me=1/trellis=2/8x8dct=1/cqm=0/deadzone=21, 11/fast_pskip=0/chroma_qp_offset=-3/threads=12/lookahead_threads=3/sliced_threads=0/nr=0/decimate=0/interlaced=0/bluray_compat=0/constrained_intra=0/bframes=12/b_pyramid=2/b_adapt=2/b_bias=0/direct=3/weightb=1/open_gop=0/weightp=2/keyint=240/keyint_min=23/scenecut=40/intra_refresh=0/rc=2pass/mbtree=0/bitrate=4834/ratetol=1.0/qcomp=0.60/qpmin=0/qpmax=69/qpstep=4/cplxblur=20.0/qblur=0.5/ip_ratio=1.40/pb_ratio=1.30/aq=1: 0.90
    Язык : English
    Default : Да
    Forced : Нет
    Аудио #1
    Идентификатор : 2
    Формат : AC-3
    Формат/Информация : Audio Coding 3
    Расширение режима : CM (complete main)
    Параметр Endianness формата : Big
    Идентификатор кодека : A_AC3
    Продолжительность : 1 ч. 49 м.
    Вид битрейта : Постоянный
    Битрейт : 448 Кбит/сек
    Каналы : 6 каналов
    Расположение каналов : Front: L C R, Side: L R, LFE
    Частота : 48, 0 КГц
    Частота кадров : 31, 250 кадров/сек (1536 spf)
    Битовая глубина : 16 бит
    Метод сжатия : С потерями
    Размер потока : 350 Мбайт (8%)
    Язык : Russian
    Default : Да
    Forced : Нет
    Аудио #2
    Идентификатор : 3
    Формат : AC-3
    Формат/Информация : Audio Coding 3
    Расширение режима : CM (complete main)
    Параметр Endianness формата : Big
    Идентификатор кодека : A_AC3
    Продолжительность : 1 ч. 49 м.
    Вид битрейта : Постоянный
    Битрейт : 448 Кбит/сек
    Каналы : 6 каналов
    Расположение каналов : Front: L C R, Side: L R, LFE
    Частота : 48, 0 КГц
    Частота кадров : 31, 250 кадров/сек (1536 spf)
    Битовая глубина : 16 бит
    Метод сжатия : С потерями
    Размер потока : 350 Мбайт (8%)
    Язык : Chinese
    Default : Нет
    Forced : Нет
    Текст
    Идентификатор : 4
    Формат : UTF-8
    Идентификатор кодека : S_TEXT/UTF8
    Идентификатор кодека/Информация : UTF-8 Plain Text
    Язык : English
    Default : Нет
    Forced : Нет
    Меню
    00: 00: 00.000 : : Chapter 01
    00: 10: 31.665 : : Chapter 02
    00: 18: 13.540 : : Chapter 03
    00: 29: 30.583 : : Chapter 04
    00: 37: 41.083 : : Chapter 05
    00: 45: 25.666 : : Chapter 06
    00: 54: 11.291 : : Chapter 07
    01: 02: 20.666 : : Chapter 08
    01: 12: 22.250 : : Chapter 09
    01: 20: 37.875 : : Chapter 10
    01: 30: 19.291 : : Chapter 11
    01: 43: 09.666 : : Chapter 12
    01: 49: 12.832 : : Chapter 13

    Скриншоты для ознакомления



    Все одноименные релизы в Клубе
    Время раздачи: с 23: 00 до 8: 30 (до появления первых 3-5 скачавших)


    Онлайн видео Охота на человека



    Охота на человека/Manhunt (2017) BDRip [H.264/720p]
    Рейтинг →
     (голосов: 1, оценка 4/5, голосовать можно 1 раз )

    Другие торренты по теме:

  • Охота на человека / La mala ordina (1972) DVDRip [H.264] [АVO] скачать через торрент бесплатно
  • Охота на человека / Manhunt (2017) BDRip [AVO]


    • Комментарии (0):

      Информация

      Информация

        Посетители, находящиеся в группе Гости, не могут оставлять комментарии в данной новости.

        ↓ Меню




        ↓ Опрос

        Вы добавили сайт в закладки?
        Да
        Нет


        Top 10 за месяц (Фильмы)