.
Авторизация | Регистрация
Хочешь лучшие торренты? Добавь свой email!
Добавить

Торрент скачать бесплатно

  • support: webmaster@btracker.org
» » Последний самурай / The Last Samurai (2003) BDRip [H.264 / 720p] торрент скачать бесплатно


    Последний самурай / The Last Samurai (2003) BDRip [H.264 / 720p] торрент скачать бесплатно

    Опубликовал: Админ | Дата: 1-06-2018, 05:00 | .torrent скачали: 0

    Последний самурай / The Last Samurai (2003) BDRip [H.264 / 720p]Жанр: Боевик, Драма, Военный, История
    Производство: США/Cruise/Wagner Productions, Radar Pictures Inc., The Bedford Falls Company, Warner Bros. Picture
    Режиссер: Эдвард Цвик

    Актеры
    Кен Ватанабе, Том Круз, Коюки, Уильям Этертон, Тони Голдуин, Билли Коннолли, Чэд Линдберг, Тимоти Сполл, Ситиносукэ Накамура, Хироюки Санада

    Описание

    Действие разворачивается в Японии 70-ых годов девятнадцатого века. Капитан Нейтон Альгрен, уважаемый американский военный офицер, нанят Императором Японии для обучения первой армии Страны Восходящего Солнца современному искусству ведения боевых действий.
    Император пытается искоренить древних воинов-самураев, готовясь к более прозападной политике правительства…

    Возраст: 16+ (зрителям, достигшим 16 лет)
    Рейтинг MPAA: R (лицам до 17 лет обязательно присутствие взрослого)
    Релиз от: k.e.n MegaPeer
    Продолжительность: 02: 34: 11
    Качество видео: BDRip 720p
    Перевод: Дублированный, профессиональный двухголосый, авторский одноголосый
    Субтитры: Русские, английские
    Видео: AVC, 1280x528 (2.40: 1), 23.976 fps, 4 959 Kbps (0.306 bit/pixel)
    Аудио #1: AC-3, 48.0 KHz, 6 ch, 448 Kbps, CBR (Russian) - дублированный
    Аудио #2: AC-3, 48.0 KHz, 6 ch, 448 Kbps, CBR (Russian) - двухголосый (П.Гланц и И.Королёва)
    Аудио #3: AC-3, 48.0 KHz, 6 ch, 448 Kbps, CBR (Russian) - авторский А.Гаврилов
    Аудио #4: AC-3, 48.0 KHz, 6 ch, 448 Kbps, CBR (Russian) - авторский Ю.Живов
    Аудио #5: AC-3, 48.0 KHz, 6 ch, 448 Kbps, CBR (English) - оригинал
    Полное имя : D: ФИЛЬМЫПоследний самурай.2003 (Т.Круз, К.Ватанабе).mkv
    Формат : Matroska
    Версия формата : Version 2
    Размер файла : 7, 75 Гбайт
    Продолжительность : 2 ч. 34 м.
    Общий поток : 7200 Кбит/сек
    Название фильма : Последний самурай
    Дата кодирования : UTC 2018-05-18 00: 36: 18
    Программа кодирования : mkvmerge v5.3.0 (\'I could have danced\') built on Feb 9 2012 10: 38: 07
    Библиотека кодирования : libebml v1.2.3 + libmatroska v1.3.0
    Attachments : poster 5.jpg
    Видео
    Идентификатор : 1
    Формат : AVC
    Формат/Информация : Advanced Video Codec
    Профиль формата : High@L4.1
    Параметр CABAC формата : Да
    Параметр ReFrames формата : 12 кадров
    Идентификатор кодека : V_MPEG4/ISO/AVC
    Продолжительность : 2 ч. 34 м.
    Битрейт : 4959 Кбит/сек
    Ширина : 1280 пикселей
    Высота : 528 пикселей
    Соотношение сторон : 2, 40: 1
    Режим частоты кадров : Постоянный
    Частота кадров : 23, 976 (24000/1001) кадра/сек
    Цветовое пространство : YUV
    Субдискретизация насыщенности : 4: 2: 0
    Битовая глубина : 8 бит
    Тип развёртки : Прогрессивная
    Бит/(Пиксели*Кадры) : 0.306
    Размер потока : 5, 19 Гбайт (67%)
    Библиотека кодирования : x264 core 146 r2538 121396c
    Настройки программы : cabac=1/ref=12/deblock=1: -3: -3/analyse=0x3: 0x133/me=umh/subme=11/psy=1/psy_rd=1.00: 0.10/mixed_ref=1/me_range=32/chroma_me=1/trellis=2/8x8dct=1/cqm=0/deadzone=21, 11/fast_pskip=0/chroma_qp_offset=-3/threads=12/lookahead_threads=3/sliced_threads=0/nr=0/decimate=0/interlaced=0/bluray_compat=0/constrained_intra=0/bframes=12/b_pyramid=2/b_adapt=2/b_bias=0/direct=3/weightb=1/open_gop=0/weightp=2/keyint=240/keyint_min=23/scenecut=40/intra_refresh=0/rc=2pass/mbtree=0/bitrate=4959/ratetol=1.0/qcomp=0.60/qpmin=0/qpmax=69/qpstep=4/cplxblur=20.0/qblur=0.5/ip_ratio=1.40/pb_ratio=1.30/aq=1: 0.90
    Язык : English
    Default : Да
    Forced : Нет
    Аудио #1
    Идентификатор : 2
    Формат : AC-3
    Формат/Информация : Audio Coding 3
    Расширение режима : CM (complete main)
    Параметр Endianness формата : Big
    Идентификатор кодека : A_AC3
    Продолжительность : 2 ч. 34 м.
    Вид битрейта : Постоянный
    Битрейт : 448 Кбит/сек
    Каналы : 6 каналов
    Расположение каналов : Front: L C R, Side: L R, LFE
    Частота : 48, 0 КГц
    Частота кадров : 31, 250 кадров/сек (1536 spf)
    Битовая глубина : 16 бит
    Метод сжатия : С потерями
    Размер потока : 494 Мбайт (6%)
    Заголовок : Дублированный
    Язык : Russian
    Default : Да
    Forced : Да
    Аудио #2
    Идентификатор : 3
    Формат : AC-3
    Формат/Информация : Audio Coding 3
    Расширение режима : CM (complete main)
    Параметр Endianness формата : Big
    Идентификатор кодека : A_AC3
    Продолжительность : 2 ч. 34 м.
    Вид битрейта : Постоянный
    Битрейт : 448 Кбит/сек
    Каналы : 6 каналов
    Расположение каналов : Front: L C R, Side: L R, LFE
    Частота : 48, 0 КГц
    Частота кадров : 31, 250 кадров/сек (1536 spf)
    Битовая глубина : 16 бит
    Метод сжатия : С потерями
    Размер потока : 494 Мбайт (6%)
    Заголовок : Двухголосый (П.Гланц и И.Королева)
    Язык : Russian
    Default : Нет
    Forced : Нет
    Аудио #3
    Идентификатор : 4
    Формат : AC-3
    Формат/Информация : Audio Coding 3
    Расширение режима : CM (complete main)
    Параметр Endianness формата : Big
    Идентификатор кодека : A_AC3
    Продолжительность : 2 ч. 34 м.
    Вид битрейта : Постоянный
    Битрейт : 448 Кбит/сек
    Каналы : 6 каналов
    Расположение каналов : Front: L C R, Side: L R, LFE
    Частота : 48, 0 КГц
    Частота кадров : 31, 250 кадров/сек (1536 spf)
    Битовая глубина : 16 бит
    Метод сжатия : С потерями
    Размер потока : 494 Мбайт (6%)
    Заголовок : Авторский А.Гаврилов
    Язык : Russian
    Default : Нет
    Forced : Нет
    Аудио #4
    Идентификатор : 5
    Формат : AC-3
    Формат/Информация : Audio Coding 3
    Расширение режима : CM (complete main)
    Параметр Endianness формата : Big
    Идентификатор кодека : A_AC3
    Продолжительность : 2 ч. 34 м.
    Вид битрейта : Постоянный
    Битрейт : 448 Кбит/сек
    Каналы : 6 каналов
    Расположение каналов : Front: L C R, Side: L R, LFE
    Частота : 48, 0 КГц
    Частота кадров : 31, 250 кадров/сек (1536 spf)
    Битовая глубина : 16 бит
    Метод сжатия : С потерями
    Размер потока : 494 Мбайт (6%)
    Заголовок : Авторский Ю.Живов
    Язык : Russian
    Default : Нет
    Forced : Нет
    Аудио #5
    Идентификатор : 6
    Формат : AC-3
    Формат/Информация : Audio Coding 3
    Расширение режима : CM (complete main)
    Параметр Endianness формата : Big
    Идентификатор кодека : A_AC3
    Продолжительность : 2 ч. 34 м.
    Вид битрейта : Постоянный
    Битрейт : 448 Кбит/сек
    Каналы : 6 каналов
    Расположение каналов : Front: L C R, Side: L R, LFE
    Частота : 48, 0 КГц
    Частота кадров : 31, 250 кадров/сек (1536 spf)
    Битовая глубина : 16 бит
    Метод сжатия : С потерями
    Размер потока : 494 Мбайт (6%)
    Заголовок : Оригинал
    Язык : English
    Default : Нет
    Forced : Нет
    Текст #1
    Идентификатор : 7
    Формат : UTF-8
    Идентификатор кодека : S_TEXT/UTF8
    Идентификатор кодека/Информация : UTF-8 Plain Text
    Заголовок : forced
    Язык : Russian
    Default : Да
    Forced : Нет
    Текст #2
    Идентификатор : 8
    Формат : UTF-8
    Идентификатор кодека : S_TEXT/UTF8
    Идентификатор кодека/Информация : UTF-8 Plain Text
    Заголовок : full
    Язык : Russian
    Default : Нет
    Forced : Нет
    Текст #3
    Идентификатор : 9
    Формат : UTF-8
    Идентификатор кодека : S_TEXT/UTF8
    Идентификатор кодека/Информация : UTF-8 Plain Text
    Заголовок : forced
    Язык : English
    Default : Нет
    Forced : Нет
    Текст #4
    Идентификатор : 10
    Формат : UTF-8
    Идентификатор кодека : S_TEXT/UTF8
    Идентификатор кодека/Информация : UTF-8 Plain Text
    Заголовок : full
    Язык : English
    Default : Нет
    Forced : Нет
    Меню
    00: 00: 00.000 : : Chapter 01
    00: 01: 52.068 : : Chapter 02
    00: 05: 38.629 : : Chapter 03
    00: 09: 58.388 : : Chapter 04
    00: 13: 13.583 : : Chapter 05
    00: 15: 24.881 : : Chapter 06
    00: 20: 06.496 : : Chapter 07
    00: 22: 54.830 : : Chapter 08
    00: 25: 39.496 : : Chapter 09
    00: 31: 12.996 : : Chapter 10
    00: 37: 00.675 : : Chapter 11
    00: 41: 00.916 : : Chapter 12
    00: 44: 11.440 : : Chapter 13
    00: 49: 36.097 : : Chapter 14
    00: 52: 41.114 : : Chapter 15
    00: 56: 48.362 : : Chapter 16
    01: 00: 04.559 : : Chapter 17
    01: 03: 25.259 : : Chapter 18
    01: 06: 58.972 : : Chapter 19
    01: 11: 43.256 : : Chapter 20
    01: 14: 40.600 : : Chapter 21
    01: 18: 55.689 : : Chapter 22
    01: 21: 22.002 : : Chapter 23
    01: 24: 21.014 : : Chapter 24
    01: 26: 39.819 : : Chapter 25
    01: 30: 28.381 : : Chapter 26
    01: 34: 01.761 : : Chapter 27
    01: 37: 16.454 : : Chapter 28
    01: 41: 46.390 : : Chapter 29
    01: 44: 55.912 : : Chapter 30
    01: 48: 06.604 : : Chapter 31
    01: 52: 26.363 : : Chapter 32
    01: 55: 24.375 : : Chapter 33
    02: 00: 03.654 : : Chapter 34
    02: 06: 24.534 : : Chapter 35
    02: 08: 21.484 : : Chapter 36
    02: 10: 46.796 : : Chapter 37
    02: 13: 06.602 : : Chapter 38
    02: 16: 37.314 : : Chapter 39
    02: 22: 57.527 : : Chapter 40
    02: 24: 31.287 : : Chapter 41

    Скриншоты для ознакомления



    Все одноименные релизы в Клубе
    Время раздачи: с 23: 00 до 8: 30 (до появления первых 3-5 скачавших) /quote


    Онлайн видео Последний самурай



    Последний самурай/The Last Samurai (2003) BDRip [H.264/720p]
    Рейтинг →
     (голосов: 1, оценка 3/5, голосовать можно 1 раз )

    Другие торренты по теме:

  • Последний самурай / The Last Samurai (2003) BDRip [H.264] скачать через торрент бесплатно
  • Последний самурай / The Last Samurai (2003) BDRemux [VC-1 / 1080p] скачать через торрент бесплатно
  • Андрей Воронин | Последний самурай (2016) [MP3]
  • Последний самурай / The Last Samurai (2003) BDRip [H.265 / 1080p-LQ]


    • Комментарии (0):

      Информация

      Информация

        Посетители, находящиеся в группе Гости, не могут оставлять комментарии в данной новости.

        ↓ Меню




        ↓ Опрос

        Вы добавили сайт в закладки?
        Да
        Нет


        Top 10 за месяц (Фильмы)