.
Авторизация | Регистрация
Хочешь лучшие торренты? Добавь свой email!
Добавить

Торрент скачать бесплатно

  • support: webmaster@btracker.org
» » Скиф (2017) BDRemux [H.264 / 1080p] торрент скачать бесплатно


    Скиф (2017) BDRemux [H.264 / 1080p] торрент скачать бесплатно

    Опубликовал: Админ | Дата: 1-06-2018, 05:00 | .torrent скачали: 0

    Скиф (2017) BDRemux [H.264 / 1080p]Производство: Россия/Кинокомпания СТВ
    Жанр: Драма, История, Фэнтези, Боевик, Приключения
    Режиссер: Рустам Мосафи

    Актеры
    Алексей Фаддеев, Виталий Кравченко, Александр Кузнецов, Александр Пацевич, Юрий Цурило, Андрей Пермяков, Василиса Измайлова, Алексей Овсянников, Фёдор Рощин, Рустам Мосафир

    Описание

    Действие фильма происходит во время смены цивилизаций. В Евразии начинается новая эра. Ушли в небытие гордые воины — скифы, их вымирающие потомки превратились в безжалостных наемных убийц, волков Ареса. Ратнику Лютобору предстоит тяжелое испытание. Втянутый в междоусобные интриги он отправляется в опасный путь ради спасения семьи, а его проводником становится пленный скиф Куница. Они — враги и молятся разным богам, но вынуждены идти вместе. Через дикий степной мир к пристанищу последних скифов, где их ждет почти неминуемая смерть...

    Возраст: 18+ (зрителям, достигшим 18 лет. запрещено для детей)
    Дата российской премьеры: 18 января 2018, Наше Кино
    Продолжительность: 01: 44: 32
    Качество видео: BDRemux
    Перевод: Не требуется (русский) iTunes
    Субтитры: Немецкие
    Видео: AVC/H.264, 1920x1080, ~33, 9 Мbps, 23.976 fps
    Аудио 1: DTS-HD MA, 6 ch, ~3840 kbps - Русский
    Аудио 2: DTS-HD MA, 6 ch, ~3840 kbps - Немецкий

    Общее
    Уникальный идентификатор : 152982446889024367169622683277921312598 (0x731758F892A432F2CEDDA4284C775F56)
    Полное имя : Скиф.2017.BDRemux.mkv
    Формат : Matroska
    Версия формата : Version 4/Version 2
    Размер файла : 30, 4 Гбайт
    Продолжительность : 1 ч. 44 м.
    Режим общего битрейта : Переменный
    Общий поток : 41, 7 Мбит/сек
    Название фильма : Скиф.2017.BDRemux
    Дата кодирования : UTC 2018-05-30 21: 39: 48
    Программа кодирования : mkvmerge v23.0.0 (\'The Bride Said No\') 64-bit
    Библиотека кодирования : libebml v1.3.6 + libmatroska v1.4.9
    Видео
    Идентификатор : 1
    Формат : AVC
    Формат/Информация : Advanced Video Codec
    Профиль формата : High@L4.1
    Настройки формата : CABAC/3 Ref Frames
    Параметр CABAC формата : Да
    Параметр RefFrames формата : 3 кадра
    Идентификатор кодека : V_MPEG4/ISO/AVC
    Продолжительность : 1 ч. 44 м.
    Вид битрейта : Переменный
    Битрейт : 33, 9 Мбит/сек
    Максимальный битрейт : 37, 0 Мбит/сек
    Ширина : 1920 пикселей
    Высота : 1080 пикселей
    Соотношение сторон : 16: 9
    Режим частоты кадров : Постоянный
    Частота кадров : 23, 976 (24000/1001) кадра/сек
    Цветовое пространство : YUV
    Субдискретизация насыщенности : 4: 2: 0
    Битовая глубина : 8 бит
    Тип развёртки : Прогрессивная
    Бит/(Пиксели*Кадры) : 0.682
    Размер потока : 24, 8 Гбайт (81%)
    Язык : Russian
    Default : Да
    Forced : Нет
    Аудио #1
    Идентификатор : 2
    Формат : DTS
    Формат/Информация : Digital Theater Systems
    Профиль формата : MA/Core
    Идентификатор кодека : A_DTS
    Продолжительность : 1 ч. 44 м.
    Вид битрейта : Переменный/Постоянный
    Битрейт : 3840 Кбит/сек/1509 Кбит/сек
    Каналы : 6 каналов
    Расположение каналов : Front: L C R, Side: L R, LFE
    Частота : 48, 0 КГц
    Частота кадров : 93, 750 кадра/сек (512 SPF)
    Битовая глубина : 24 бит
    Метод сжатия : Без потерь/Lossy
    Размер потока : 2, 82 Гбайт (9%)
    Язык : Russian
    Default : Да
    Forced : Нет
    Аудио #2
    Идентификатор : 3
    Формат : DTS
    Формат/Информация : Digital Theater Systems
    Профиль формата : MA/Core
    Идентификатор кодека : A_DTS
    Продолжительность : 1 ч. 44 м.
    Вид битрейта : Переменный/Постоянный
    Битрейт : 3840 Кбит/сек/1509 Кбит/сек
    Каналы : 6 каналов
    Расположение каналов : Front: L C R, Side: L R, LFE
    Частота : 48, 0 КГц
    Частота кадров : 93, 750 кадра/сек (512 SPF)
    Битовая глубина : 24 бит
    Метод сжатия : Без потерь/Lossy
    Размер потока : 2, 84 Гбайт (9%)
    Язык : German
    Default : Нет
    Forced : Нет
    Текст #1
    Идентификатор : 4
    Формат : PGS
    Режим смешивания : zlib
    Идентификатор кодека : S_HDMV/PGS
    Идентификатор кодека/Информация : Picture based subtitle format used on BDs/HD-DVDs
    Продолжительность : 1 ч. 40 м.
    Битрейт : 23, 8 Кбит/сек
    ElementCount : 1000
    Размер потока : 17, 1 Мбайт (0%)
    Язык : German
    Default : Нет
    Forced : Нет
    Текст #2
    Идентификатор : 5
    Формат : PGS
    Режим смешивания : zlib
    Идентификатор кодека : S_HDMV/PGS
    Идентификатор кодека/Информация : Picture based subtitle format used on BDs/HD-DVDs
    Продолжительность : 1 ч. 26 м.
    Битрейт : 68 бит/сек
    ElementCount : 5
    Размер потока : 43, 7 Кбайт (0%)
    Язык : German
    Default : Нет
    Forced : Нет
    Меню
    00: 00: 00.000 : ru: Chapter 1
    00: 10: 40.556 : ru: Chapter 2
    00: 18: 16.386 : ru: Chapter 3
    00: 29: 00.822 : ru: Chapter 4
    00: 37: 23.491 : ru: Chapter 5
    00: 45: 32.688 : ru: Chapter 6
    00: 53: 55.690 : ru: Chapter 7
    01: 03: 59.335 : ru: Chapter 8
    01: 11: 56.645 : ru: Chapter 9
    01: 22: 56.972 : ru: Chapter 10
    01: 31: 06.127 : ru: Chapter 11
    01: 38: 28.110 : ru: Chapter 12
    01: 44: 32.140 : ru: Chapter 13

    Скриншоты для ознакомления



    Все одноименные релизы в Клубе
    Время раздачи: (до появления первых 3-5 скачавших)


    Онлайн видео Скиф (2017) BDRemux [H.264



    Скиф (2017) BDRemux [H.264/1080p]
    Рейтинг →
     (голосов: 1, оценка 4/5, голосовать можно 1 раз )

    Другие торренты по теме:

  • Скиф (2017) WEBRip [H.264 / 1080p-LQ] [Тизер]
  • Скиф (2017) TS [AD]
  • Скиф (2017) WEB-DLRip [AD]
  • Скиф (2017) WEB-DLRip
  • Скиф (2017) WEB-DL [H.264 / 1080p-LQ]
  • Скиф (2017) WEB-DL [1080p] ATV
  • Скиф (2017) WEB-DL [720p] ATV
  • Скиф (2017) WEB-DLRip [576p] iPad


    • Комментарии (0):

      Информация

      Информация

        Посетители, находящиеся в группе Гости, не могут оставлять комментарии в данной новости.

        ↓ Меню




        ↓ Опрос

        Вы добавили сайт в закладки?
        Да
        Нет


        Top 10 за месяц (Фильмы)