.
Авторизация | Регистрация
Хочешь лучшие торренты? Добавь свой email!
Добавить

Торрент скачать бесплатно

  • support: webmaster@btracker.org
» » Темные времена / Darkest Hour (2017) UHD BDRemux [H.265 / 2160p] [4K, HDR, 10-bit] торрент скачать бесплатно


    Темные времена / Darkest Hour (2017) UHD BDRemux [H.265 / 2160p] [4K, HDR, 10-bit] торрент скачать бесплатно

    Опубликовал: Админ | Дата: 1-06-2018, 05:00 | .torrent скачали: 0

    Темные времена / Darkest Hour (2017) UHD BDRemux [H.265 / 2160p] [4K, HDR, 10-bit]Производство: Великобритания, США/Perfect World Pictures
    Жанр: драма, военный, биография, история
    Режиссер: Джо Райт
    Продюсер: Тим Беван, Джеймс Биддл, Лиза Брюс

    Актеры
    Лили Джеймс, Гэри Олдман, Бен Мендельсон, Кристин Скотт Томас, Стивен Диллэйн, Сэмюэл Уэст, Ханна Стил, Рональд Пикап, Анна Барнетт, Николас Джонс

    Описание

    История о первом и решающем шаге Уинстона Черчилля на посту премьер-министра Великобритании, получившего власть при чрезвычайных обстоятельствах. Успехи нацистской армии взбудоражили британское сообщество, но вопреки давлению и страху других политиков Черчилль отказывается идти на соглашение с Гитлером.

    Возраст: 16+ (зрителям, достигшим 16 лет)
    Рейтинг MPAA: PG-13 (детям до 13 лет просмотр нежелателен)
    Премьера (мир): 1 сентября 2017
    Премьера (РФ): 18 января 2018, UPI

    Релиз от: ExKinoRay Ivantsov
    Продолжительность: 02: 05: 17
    Качество: UHD BDRemux (HDR)
    Перевод: Дублированный (Лицензия EUR)
    Субтитры: Русские (forced, 3x full), украинские (forced), английские (forced, full, SDH, SDH-colored, commentary)
    Видео: H.265/HEVC, 3840x2160p, (16: 9), 49.6 Mbps, 23.976 fps
    Аудио 1: AC3, 6 ch, 640 kbps - Русский
    Аудио 2: AC3, 2 ch, 192 kbps - Украинский
    Аудио 3: TrueHD+Atmos, 8 ch, 4225 kbps - Английский
    Аудио 4: DTS-HD MA, 8 ch, 3568 kbps - Английский
    Аудио 5: AC3, 6 ch, 640 kbps - Английский
    Аудио 6: AC3, 2 ch, 192 kbps - Английский, Comm. Joe Wright
    Диск на Blu-ray.com
    Просмотр 4K HDR-контента на ПК
    Общее
    Уникальный идентификатор : 213755234858961200310134101301891858296 (0xA0CFC2C110ABD1E3D0B2CFA680467F78)
    Полное имя : Darkest.Hour.2017.Lic.BDRemux.2160p.4K.UltraHD.HEVC.HDR.IVA(RUS.UKR.ENG).ExKinoRay.mkv
    Формат : Matroska
    Версия формата : Version 4/Version 2
    Размер файла : 51, 7 Гбайт
    Продолжительность : 2 ч. 5 м.
    Режим общего битрейта : Переменный
    Общий поток : 59, 1 Мбит/сек
    Название фильма : Темные времена/Darkest Hour ( 2017 ) UHD BDRemux | HDR, 4K | IVA(RUS.UKR.ENG) | ExKinoRay
    Дата кодирования : UTC 2018-05-30 00: 05: 50
    Программа кодирования : mkvmerge v23.0.0 (\'The Bride Said No\') 64-bit
    Библиотека кодирования : libebml v1.3.6 + libmatroska v1.4.9
    Обложка : Yes
    Attachments : cover
    Видео
    Идентификатор : 1
    Формат : HEVC
    Формат/Информация : High Efficiency Video Coding
    Коммерческое название : HDR10
    Профиль формата : Main10@L5.1@High
    Идентификатор кодека : V_MPEGH/ISO/HEVC
    Продолжительность : 2 ч. 5 м.
    Битрейт : 49, 6 Мбит/сек
    Ширина : 3840 пикселей
    Высота : 2160 пикселей
    Соотношение сторон : 16: 9
    Режим частоты кадров : Постоянный
    Частота кадров : 23, 976 (24000/1001) кадра/сек
    Цветовое пространство : YUV
    Субдискретизация насыщенности : 4: 2: 0 (Type 2)
    Битовая глубина : 10 бит
    Бит/(Пиксели*Кадры) : 0.249
    Размер потока : 43, 4 Гбайт (84%)
    Заголовок : Darkest.Hour.2017.2160p.BluRay.REMUX.HEVC.HDR
    Библиотека кодирования : ATEME Titan File 3.8.14 (4.8.14.0)
    Язык : English
    Default : Да
    Forced : Нет
    Цветовой диапазон : Limited
    Основные цвета : BT.2020
    Характеристики трансфера : PQ
    Коэффициенты матрицы : BT.2020 non-constant
    MasteringDisplay_Luminance : min: 0.0050 cd/m2, max: 1000 cd/m2
    MaxCLL : 662 cd/m2
    MaxFALL : 151 cd/m2
    Аудио #1
    Идентификатор : 2
    Формат : AC-3
    Формат/Информация : Audio Coding 3
    Идентификатор кодека : A_AC3
    Продолжительность : 2 ч. 5 м.
    Вид битрейта : Постоянный
    Битрейт : 640 Кбит/сек
    Каналы : 6 каналов
    Расположение каналов : Front: L C R, Side: L R, LFE
    Частота : 48, 0 КГц
    Частота кадров : 31, 250 кадров/сек (1536 SPF)
    Битовая глубина : 16 бит
    Метод сжатия : С потерями
    Размер потока : 573 Мбайт (1%)
    Заголовок : | Дублированный |
    Язык : Russian
    ServiceKind/String : Complete Main
    Default : Да
    Forced : Нет
    Аудио #2
    Идентификатор : 3
    Формат : AC-3
    Формат/Информация : Audio Coding 3
    Идентификатор кодека : A_AC3
    Продолжительность : 2 ч. 5 м.
    Вид битрейта : Постоянный
    Битрейт : 192 Кбит/сек
    Каналы : 2 канала
    Расположение каналов : Front: L R
    Частота : 48, 0 КГц
    Частота кадров : 31, 250 кадров/сек (1536 SPF)
    Битовая глубина : 16 бит
    Метод сжатия : С потерями
    Размер потока : 172 Мбайт (0%)
    Заголовок : | Дублированный, iTunes |
    Язык : Ukrainian
    ServiceKind/String : Complete Main
    Default : Нет
    Forced : Нет
    Аудио #3
    Идентификатор : 4
    Формат : TrueHD
    Профиль формата : TrueHD+Atmos/TrueHD
    Идентификатор кодека : A_TRUEHD
    Продолжительность : 2 ч. 5 м.
    Вид битрейта : Переменный
    Битрейт : 4225 Кбит/сек
    Максимальный битрейт : 6603 Кбит/сек
    Каналы : Object Based/8 каналов
    Расположение каналов : Object Based/Front: L C R, Side: L R, Back: L R, LFE
    Частота : /48, 0 КГц
    Частота кадров : 1200, 000 кадров/сек (40 SPF)
    Метод сжатия : Без потерь
    Задержка видео : 32 мс.
    Размер потока : 3, 70 Гбайт (7%)
    Заголовок : | Original |
    Язык : English
    Default : Нет
    Forced : Нет
    Аудио #4
    Идентификатор : 5
    Формат : DTS
    Формат/Информация : Digital Theater Systems
    Профиль формата : MA/Core
    Идентификатор кодека : A_DTS
    Продолжительность : 2 ч. 5 м.
    Вид битрейта : Переменный/Постоянный
    Битрейт : 3568 Кбит/сек/1509 Кбит/сек
    Каналы : 8 каналов/6 каналов
    Расположение каналов : Front: L C R, Side: L R, Back: L R, LFE/Front: L C R, Side: L R, LFE
    Частота : 48, 0 КГц
    Частота кадров : 93, 750 кадра/сек (512 SPF)
    Битовая глубина : 24 бит
    Метод сжатия : Без потерь/Lossy
    Размер потока : 3, 12 Гбайт (6%)
    Заголовок : | Original |
    Язык : English
    Default : Нет
    Forced : Нет
    Аудио #5
    Идентификатор : 6
    Формат : AC-3
    Формат/Информация : Audio Coding 3
    Идентификатор кодека : A_AC3
    Продолжительность : 2 ч. 5 м.
    Вид битрейта : Постоянный
    Битрейт : 640 Кбит/сек
    Каналы : 6 каналов
    Расположение каналов : Front: L C R, Side: L R, LFE
    Частота : 48, 0 КГц
    Частота кадров : 31, 250 кадров/сек (1536 SPF)
    Битовая глубина : 16 бит
    Метод сжатия : С потерями
    Задержка видео : 31 мс.
    Размер потока : 573 Мбайт (1%)
    Заголовок : | Original, AC3 Core |
    Язык : English
    ServiceKind/String : Complete Main
    Default : Нет
    Forced : Нет
    Аудио #6
    Идентификатор : 7
    Формат : AC-3
    Формат/Информация : Audio Coding 3
    Идентификатор кодека : A_AC3
    Продолжительность : 2 ч. 5 м.
    Вид битрейта : Постоянный
    Битрейт : 192 Кбит/сек
    Каналы : 2 канала
    Расположение каналов : Front: L R
    Частота : 48, 0 КГц
    Частота кадров : 31, 250 кадров/сек (1536 SPF)
    Битовая глубина : 16 бит
    Метод сжатия : С потерями
    Размер потока : 172 Мбайт (0%)
    Заголовок : | Comm. Joe Wright |
    Язык : English
    ServiceKind/String : Complete Main
    Default : Нет
    Forced : Нет
    Текст #1
    Идентификатор : 8
    Формат : UTF-8
    Идентификатор кодека : S_TEXT/UTF8
    Идентификатор кодека/Информация : UTF-8 Plain Text
    Продолжительность : 1 ч. 58 м.
    Битрейт : 1 бит/сек
    ElementCount : 41
    Размер потока : 1, 69 Кбайт (0%)
    Заголовок : Forced
    Язык : Russian
    Default : Да
    Forced : Да
    Текст #2
    Идентификатор : 9
    Формат : UTF-8
    Идентификатор кодека : S_TEXT/UTF8
    Идентификатор кодека/Информация : UTF-8 Plain Text
    Продолжительность : 1 ч. 58 м.
    Битрейт : 102 бит/сек
    ElementCount : 1651
    Размер потока : 89, 4 Кбайт (0%)
    Заголовок : Full BD
    Язык : Russian
    Default : Нет
    Forced : Нет
    Текст #3
    Идентификатор : 10
    Формат : UTF-8
    Идентификатор кодека : S_TEXT/UTF8
    Идентификатор кодека/Информация : UTF-8 Plain Text
    Продолжительность : 1 ч. 59 м.
    Битрейт : 105 бит/сек
    ElementCount : 1680
    Размер потока : 91, 6 Кбайт (0%)
    Заголовок : Full focs
    Язык : Russian
    Default : Нет
    Forced : Нет
    Текст #4
    Идентификатор : 11
    Формат : UTF-8
    Идентификатор кодека : S_TEXT/UTF8
    Идентификатор кодека/Информация : UTF-8 Plain Text
    Продолжительность : 1 ч. 59 м.
    Битрейт : 111 бит/сек
    ElementCount : 1795
    Размер потока : 97, 8 Кбайт (0%)
    Заголовок : Full Leonid55
    Язык : Russian
    Default : Нет
    Forced : Нет
    Текст #5
    Идентификатор : 12
    Формат : UTF-8
    Идентификатор кодека : S_TEXT/UTF8
    Идентификатор кодека/Информация : UTF-8 Plain Text
    Продолжительность : 1 ч. 58 м.
    Битрейт : 1 бит/сек
    ElementCount : 15
    Размер потока : 1, 52 Кбайт (0%)
    Заголовок : Forced
    Язык : Ukrainian
    Default : Нет
    Forced : Да
    Текст #6
    Идентификатор : 13
    Формат : UTF-8
    Идентификатор кодека : S_TEXT/UTF8
    Идентификатор кодека/Информация : UTF-8 Plain Text
    Продолжительность : 4 с. 880 мс.
    Битрейт : 83 бит/сек
    ElementCount : 3
    Размер потока : 51, 0 байт (0%)
    Заголовок : Forced
    Язык : English
    Default : Нет
    Forced : Да
    Текст #7
    Идентификатор : 14
    Формат : UTF-8
    Идентификатор кодека : S_TEXT/UTF8
    Идентификатор кодека/Информация : UTF-8 Plain Text
    Продолжительность : 1 ч. 57 м.
    Битрейт : 56 бит/сек
    ElementCount : 1759
    Размер потока : 48, 4 Кбайт (0%)
    Заголовок : Full
    Язык : English
    Default : Нет
    Forced : Нет
    Текст #8
    Идентификатор : 15
    Формат : UTF-8
    Идентификатор кодека : S_TEXT/UTF8
    Идентификатор кодека/Информация : UTF-8 Plain Text
    Продолжительность : 1 ч. 57 м.
    Битрейт : 58 бит/сек
    ElementCount : 1805
    Размер потока : 49, 8 Кбайт (0%)
    Заголовок : SDH
    Язык : English
    Default : Нет
    Forced : Нет
    Текст #9
    Идентификатор : 16
    Формат : UTF-8
    Идентификатор кодека : S_TEXT/UTF8
    Идентификатор кодека/Информация : UTF-8 Plain Text
    Продолжительность : 1 ч. 57 м.
    Битрейт : 68 бит/сек
    ElementCount : 1814
    Размер потока : 58, 4 Кбайт (0%)
    Заголовок : SDH Colored
    Язык : English
    Default : Нет
    Forced : Нет
    Текст #10
    Идентификатор : 17
    Формат : UTF-8
    Идентификатор кодека : S_TEXT/UTF8
    Идентификатор кодека/Информация : UTF-8 Plain Text
    Продолжительность : 1 ч. 59 м.
    Битрейт : 90 бит/сек
    ElementCount : 2064
    Размер потока : 79, 3 Кбайт (0%)
    Заголовок : Comm. Joe Wright
    Язык : English
    Default : Нет
    Forced : Нет
    Меню
    00: 00: 00.000 : en: Chapter 1
    00: 05: 44.052 : en: Chapter 2
    00: 10: 41.974 : en: Chapter 3
    00: 14: 23.612 : en: Chapter 4
    00: 22: 57.084 : en: Chapter 5
    00: 29: 47.202 : en: Chapter 6
    00: 37: 33.542 : en: Chapter 7
    00: 41: 28.611 : en: Chapter 8
    00: 48: 50.928 : en: Chapter 9
    00: 56: 40.522 : en: Chapter 10
    01: 03: 02.487 : en: Chapter 11
    01: 11: 21.026 : en: Chapter 12
    01: 19: 05.490 : en: Chapter 13
    01: 24: 29.814 : en: Chapter 14
    01: 30: 49.652 : en: Chapter 15
    01: 36: 22.777 : en: Chapter 16
    01: 39: 57.992 : en: Chapter 17
    01: 45: 44.129 : en: Chapter 18
    01: 53: 19.250 : en: Chapter 19
    02: 00: 08.618 : en: Chapter 20
    YouTube

    Скриншоты для ознакомления


    Релизы фильма Темные времена/Darkest Hour на NNM Club
    Время раздачи: с 9: 00 до 23: 00


    Онлайн видео Темные времена



    Темные времена/Darkest Hour (2017) UHD BDRemux [H.265/2160p] [4K, HDR, 10-bit]
    Рейтинг →
     (голосов: 1, оценка 3/5, голосовать можно 1 раз )

    Другие торренты по теме:

  • Ханна Арендт | Люди в темные времена (2003) [DJVU] скачать через торрент бесплатно
  • Элисон Гудман | Клуб «Темные времена» (2017) [FB2]
  • Очень темные времена / Super Dark Times (2017) HDRip [MVO] [AD]
  • Темные времена / Darkest Hour (2017) WEB-DL [H.264 / 720p-LQ] [EN / EN Sub]
  • Темные времена / Darkest Hour (2017) HDRip [MVO] [AD]
  • Темные времена / Darkest Hour (2017) BDRip [H.264 / 1080p] [EN]
  • Темные времена / Darkest Hour (2017) BDRemux [H.264 / 1080p] [EN / EN, Fr, Sp Sub]
  • Темные времена / Darkest Hour (2017) BDRip [H.264 / 720p]


    • Комментарии (0):

      Информация

      Информация

        Посетители, находящиеся в группе Гости, не могут оставлять комментарии в данной новости.

        ↓ Меню




        ↓ Опрос

        Вы добавили сайт в закладки?
        Да
        Нет


        Top 10 за месяц (Фильмы)