.
Авторизация | Регистрация
Хочешь лучшие торренты? Добавь свой email!
Добавить

Торрент скачать бесплатно

  • support: webmaster@btracker.org
» » Аннигиляция / Annihilation (2018) UHD BDRemux [H.265 / 2160p] [4K, HDR, 10-bit] [MVO, AVO] торрент скачать бесплатно


    Аннигиляция / Annihilation (2018) UHD BDRemux [H.265 / 2160p] [4K, HDR, 10-bit] [MVO, AVO] торрент скачать бесплатно

    Опубликовал: Админ | Дата: 1-06-2018, 05:00 | .torrent скачали: 0

    Аннигиляция / Annihilation (2018) UHD BDRemux [H.265 / 2160p] [4K, HDR, 10-bit] [MVO, AVO]Производство: Великобритания, США/Paramount Pictures
    Жанр: ужасы, фантастика, триллер, драма, детектив, приключения
    Режиссер: Алекс Гарленд
    Продюсер: Джо Берн, Эли Буш, Дэвид Эллисон

    Актеры
    Натали Портман, Дженнифер Джейсон Ли, Оскар Айзек, Тесса Томпсон, Джина Родригез, Тува Новотны, Бенедикт Вонг, Дэвид Гяси, Соноя Мидзуно, Джон Шваб

    Описание

    На Землю прилетает маленький метеорит и становится причиной больших перемен. Он врезается в одиноко стоящий маяк, что загадочным образом меняет территорию вокруг.
    Профессор биологии Лина уже год страдает от потери мужа-военного. Кейн отправился на очередное секретное задание, но так и не вернулся — жив ли, погиб — женщина не знает, пока однажды дезориентированный и слегка бледный супруг внезапно не появляется на пороге их спальни. Радость длится недолго — у мужчины начинаются судороги и множественные кровотечения, а по дороге в больницу машину скорой помощи тормозят военные. Лина приходит в себя на секретной базе рядом с той самой загадочной зоной, куда уже отправлялись многочисленные экспедиции, но вернулся, оказывается, только один человек — её Кейн.

    Рейтинг MPAA: R (лицам до 17 лет обязательно присутствие взрослого)
    Премьера (мир): 13 февраля 2018

    Релиз от: ExKinoRay Ivantsov
    Продолжительность: 01: 55: 00
    Качество: UHD BDRemux (HDR)
    Перевод: Профессиональный многоголосый (Jaskier, NewStudio) любительский многоголосый (HDRezka Studio), авторский (Яроцкий)
    Субтитры: Русские (Forced, full), Украинские (full), Английские (full, SDH)
    Видео: H.265/HEVC, 3840x2160p, (16: 9), 44.9 Mbps, 23.976 fps
    Аудио 1: AC3, 6 ch, 384 kbps - Русский, Jaskier
    Аудио 2: AC3, 6 ch, 384 kbps - Русский, NewStudio
    Аудио 3: AC3, 2 ch, 192 kbps - Русский, HDRezka Studio
    Аудио 4: AC3, 6 ch, 448 kbps - Русский, Яроцкий
    Аудио 5: AC3, 6 ch, 384 kbps - Украинский
    Аудио 6: TrueHD+Atmos, 8 ch, 4062 kbps - Английский
    Аудио 7: AC3, 6 ch, 640 kbps - Английский
    Диск на Blu-ray.com
    Просмотр 4K HDR-контента на ПК
    Общее
    Уникальный идентификатор : 326505901466620712037713068522630540860 (0xF5A2BFCFDAF9D15327EF4742F25BEE3C)
    Полное имя : Annihilation.2018.BDRemux.2160p.4K.UltraHD.HEVC.HDR.IVA(4xRUS.UKR.ENG).ExKinoRay.mkv
    Формат : Matroska
    Версия формата : Version 4/Version 2
    Размер файла : 41, 4 Гбайт
    Продолжительность : 1 ч. 55 м.
    Режим общего битрейта : Переменный
    Общий поток : 51, 3 Мбит/сек
    Название фильма : Аннигиляция/Annihilation ( 2018 ) UHD BDRemux | HDR, 4K | IVA(4xRUS.UKR.ENG) | ExKinoRay
    Дата кодирования : UTC 2018-05-30 13: 32: 40
    Программа кодирования : mkvmerge v23.0.0 (\'The Bride Said No\') 64-bit
    Библиотека кодирования : libebml v1.3.6 + libmatroska v1.4.9
    Обложка : Yes
    Attachments : cover
    Видео
    Идентификатор : 1
    Формат : HEVC
    Формат/Информация : High Efficiency Video Coding
    Коммерческое название : HDR10
    Профиль формата : Main10@L5.1@High
    Идентификатор кодека : V_MPEGH/ISO/HEVC
    Продолжительность : 1 ч. 55 м.
    Битрейт : 44, 9 Мбит/сек
    Ширина : 3840 пикселей
    Высота : 2160 пикселей
    Соотношение сторон : 16: 9
    Режим частоты кадров : Постоянный
    Частота кадров : 23, 976 (24000/1001) кадра/сек
    Цветовое пространство : YUV
    Субдискретизация насыщенности : 4: 2: 0 (Type 2)
    Битовая глубина : 10 бит
    Бит/(Пиксели*Кадры) : 0.226
    Размер потока : 36, 1 Гбайт (87%)
    Язык : English
    Default : Да
    Forced : Нет
    Цветовой диапазон : Limited
    Основные цвета : BT.2020
    Характеристики трансфера : PQ
    Коэффициенты матрицы : BT.2020 non-constant
    MasteringDisplay_Luminance : min: 0.0001 cd/m2, max: 1000 cd/m2
    Аудио #1
    Идентификатор : 2
    Формат : AC-3
    Формат/Информация : Audio Coding 3
    Идентификатор кодека : A_AC3
    Продолжительность : 1 ч. 55 м.
    Вид битрейта : Постоянный
    Битрейт : 384 Кбит/сек
    Каналы : 6 каналов
    Расположение каналов : Front: L C R, Side: L R, LFE
    Частота : 48, 0 КГц
    Частота кадров : 31, 250 кадров/сек (1536 SPF)
    Битовая глубина : 16 бит
    Метод сжатия : С потерями
    Размер потока : 317 Мбайт (1%)
    Заголовок : | MVO Jaskier
    Язык : Russian
    ServiceKind/String : Complete Main
    Default : Да
    Forced : Нет
    Аудио #2
    Идентификатор : 3
    Формат : AC-3
    Формат/Информация : Audio Coding 3
    Идентификатор кодека : A_AC3
    Продолжительность : 1 ч. 55 м.
    Вид битрейта : Постоянный
    Битрейт : 384 Кбит/сек
    Каналы : 6 каналов
    Расположение каналов : Front: L C R, Side: L R, LFE
    Частота : 48, 0 КГц
    Частота кадров : 31, 250 кадров/сек (1536 SPF)
    Битовая глубина : 16 бит
    Метод сжатия : С потерями
    Размер потока : 317 Мбайт (1%)
    Заголовок : | MVO NewStudio
    Язык : Russian
    ServiceKind/String : Complete Main
    Default : Нет
    Forced : Нет
    Аудио #3
    Идентификатор : 4
    Формат : AC-3
    Формат/Информация : Audio Coding 3
    Идентификатор кодека : A_AC3
    Продолжительность : 1 ч. 55 м.
    Вид битрейта : Постоянный
    Битрейт : 192 Кбит/сек
    Каналы : 2 канала
    Расположение каналов : Front: L R
    Частота : 48, 0 КГц
    Частота кадров : 31, 250 кадров/сек (1536 SPF)
    Битовая глубина : 16 бит
    Метод сжатия : С потерями
    Размер потока : 159 Мбайт (0%)
    Заголовок : | MVO HDRezka Studio
    Язык : Russian
    ServiceKind/String : Complete Main
    Default : Нет
    Forced : Нет
    Аудио #4
    Идентификатор : 5
    Формат : AC-3
    Формат/Информация : Audio Coding 3
    Идентификатор кодека : A_AC3
    Продолжительность : 1 ч. 55 м.
    Вид битрейта : Постоянный
    Битрейт : 448 Кбит/сек
    Каналы : 6 каналов
    Расположение каналов : Front: L C R, Side: L R, LFE
    Частота : 48, 0 КГц
    Частота кадров : 31, 250 кадров/сек (1536 SPF)
    Битовая глубина : 16 бит
    Метод сжатия : С потерями
    Размер потока : 370 Мбайт (1%)
    Заголовок : | AVO Яроцкий
    Язык : Russian
    ServiceKind/String : Complete Main
    Default : Нет
    Forced : Нет
    Аудио #5
    Идентификатор : 6
    Формат : AC-3
    Формат/Информация : Audio Coding 3
    Идентификатор кодека : A_AC3
    Продолжительность : 1 ч. 55 м.
    Вид битрейта : Постоянный
    Битрейт : 384 Кбит/сек
    Каналы : 6 каналов
    Расположение каналов : Front: L C R, Side: L R, LFE
    Частота : 48, 0 КГц
    Частота кадров : 31, 250 кадров/сек (1536 SPF)
    Битовая глубина : 16 бит
    Метод сжатия : С потерями
    Размер потока : 317 Мбайт (1%)
    Заголовок : | MVO НеЗупиняйПродакшн
    Язык : Ukrainian
    ServiceKind/String : Complete Main
    Default : Нет
    Forced : Нет
    Аудио #6
    Идентификатор : 7
    Формат : TrueHD
    Профиль формата : TrueHD+Atmos/TrueHD
    Идентификатор кодека : A_TRUEHD
    Продолжительность : 1 ч. 55 м.
    Вид битрейта : Переменный
    Битрейт : 4062 Кбит/сек
    Максимальный битрейт : 7278 Кбит/сек
    Каналы : Object Based/8 каналов
    Расположение каналов : Object Based/Front: L C R, Side: L R, Back: L R, LFE
    Частота : /48, 0 КГц
    Частота кадров : 1200, 000 кадров/сек (40 SPF)
    Метод сжатия : Без потерь
    Размер потока : 3, 26 Гбайт (8%)
    Заголовок : | Original |
    Язык : English
    Default : Нет
    Forced : Нет
    Аудио #7
    Идентификатор : 8
    Формат : AC-3
    Формат/Информация : Audio Coding 3
    Идентификатор кодека : A_AC3
    Продолжительность : 1 ч. 55 м.
    Вид битрейта : Постоянный
    Битрейт : 640 Кбит/сек
    Каналы : 6 каналов
    Расположение каналов : Front: L C R, Side: L R, LFE
    Частота : 48, 0 КГц
    Частота кадров : 31, 250 кадров/сек (1536 SPF)
    Битовая глубина : 16 бит
    Метод сжатия : С потерями
    Размер потока : 526 Мбайт (1%)
    Заголовок : | Original, AC3 Core |
    Язык : English
    ServiceKind/String : Complete Main
    Default : Нет
    Forced : Нет
    Текст #1
    Идентификатор : 9
    Формат : UTF-8
    Идентификатор кодека : S_TEXT/UTF8
    Идентификатор кодека/Информация : UTF-8 Plain Text
    Продолжительность : 1 ч. 46 м.
    Битрейт : 59 бит/сек
    ElementCount : 915
    Размер потока : 46, 7 Кбайт (0%)
    Заголовок : Full Focs
    Язык : Russian
    Default : Нет
    Forced : Нет
    Текст #2
    Идентификатор : 10
    Формат : UTF-8
    Идентификатор кодека : S_TEXT/UTF8
    Идентификатор кодека/Информация : UTF-8 Plain Text
    Продолжительность : 1 ч. 46 м.
    Битрейт : 55 бит/сек
    ElementCount : 920
    Размер потока : 43, 3 Кбайт (0%)
    Заголовок : Full v.2
    Язык : Russian
    Default : Нет
    Forced : Нет
    Текст #3
    Идентификатор : 11
    Формат : UTF-8
    Идентификатор кодека : S_TEXT/UTF8
    Идентификатор кодека/Информация : UTF-8 Plain Text
    Продолжительность : 1 ч. 47 м.
    Битрейт : 56 бит/сек
    ElementCount : 926
    Размер потока : 44, 2 Кбайт (0%)
    Заголовок : Full by ivadm
    Язык : Ukrainian
    Default : Нет
    Forced : Нет
    Текст #4
    Идентификатор : 12
    Формат : UTF-8
    Идентификатор кодека : S_TEXT/UTF8
    Идентификатор кодека/Информация : UTF-8 Plain Text
    Продолжительность : 1 ч. 46 м.
    Битрейт : 34 бит/сек
    ElementCount : 940
    Размер потока : 27, 1 Кбайт (0%)
    Заголовок : Full
    Язык : English
    Default : Нет
    Forced : Нет
    Текст #5
    Идентификатор : 13
    Формат : UTF-8
    Идентификатор кодека : S_TEXT/UTF8
    Идентификатор кодека/Информация : UTF-8 Plain Text
    Продолжительность : 1 ч. 47 м.
    Битрейт : 40 бит/сек
    ElementCount : 1098
    Размер потока : 32, 2 Кбайт (0%)
    Заголовок : SDH
    Язык : English
    Default : Нет
    Forced : Нет
    Меню
    00: 00: 00.000 : en: Chapter 1
    00: 05: 09.309 : en: Chapter 2
    00: 11: 39.157 : en: Chapter 3
    00: 17: 06.692 : en: Chapter 4
    00: 24: 08.656 : en: Chapter 5
    00: 28: 59.446 : en: Chapter 6
    00: 37: 24.242 : en: Chapter 7
    00: 41: 59.517 : en: Chapter 8
    00: 49: 11.448 : en: Chapter 9
    00: 56: 06.405 : en: Chapter 10
    01: 03: 22.298 : en: Chapter 11
    01: 10: 25.012 : en: Chapter 12
    01: 17: 21.929 : en: Chapter 13
    01: 22: 20.477 : en: Chapter 14
    01: 30: 26.296 : en: Chapter 15
    01: 38: 48.589 : en: Chapter 16
    01: 43: 58.357 : en: Chapter 17
    01: 48: 14.279 : en: Chapter 18
    YouTube

    Скриншоты для ознакомления


    Релизы фильма Аннигиляция/Annihilation на NNM Club
    Время раздачи: с 9: 00 до 23: 00


    Онлайн видео Аннигиляция



    Аннигиляция/Annihilation (2018) UHD BDRemux [H.265/2160p] [4K, HDR, 10-bit] [MVO, AVO]
    Рейтинг →
     (голосов: 1, оценка 4/5, голосовать можно 1 раз )

    Другие торренты по теме:

  • Аннигиляция / Annihilation (2018) WEB-DL [H.264 / 1080p-LQ] [EN / EN Sub]
  • Аннигиляция / Annihilation (2018) WEB-DLRip [H.264 / 1080p] [MVO] [AD]
  • Аннигиляция / Annihilation (2018) WEB-DLRip [MVO] [AD]
  • Аннигиляция / Annihilation (2018) WEBRip [H.264 / 1080p-LQ] [MVO]
  • Аннигиляция / Annihilation (2018) WEBRip [MVO]
  • Аннигиляция / Annihilation (2018) WEBRip [MVO]
  • Аннигиляция / Annihilation (2018) WEB-DLRip [H.264] [MVO]
  • Аннигиляция / Annihilation (2018) WEB-DLRip [H.264] [MVO]


    • Комментарии (0):

      Информация

      Информация

        Посетители, находящиеся в группе Гости, не могут оставлять комментарии в данной новости.

        ↓ Меню




        ↓ Опрос

        Вы добавили сайт в закладки?
        Да
        Нет


        Top 10 за месяц (Фильмы)