.
Авторизация | Регистрация
Хочешь лучшие торренты? Добавь свой email!
Добавить

Торрент скачать бесплатно

  • support: webmaster@btracker.org
» » Величайший шоумен / The Greatest Showman (2017) BDRip [H.264 / 1080p-LQ] торрент скачать бесплатно


    Величайший шоумен / The Greatest Showman (2017) BDRip [H.264 / 1080p-LQ] торрент скачать бесплатно

    Опубликовал: Админ | Дата: 1-06-2018, 05:00 | .torrent скачали: 0

    Величайший шоумен / The Greatest Showman (2017) BDRip [H.264 / 1080p-LQ]Производство: США/20th Century Fox Film Corporation
    Жанр: драма, биография, мюзикл
    Режиссер: Майкл Грэйси
    Продюсер: Питер Чернин, Тония Дэвис, Дэб Дайер

    Актеры
    Хью Джекман, Зак Эфрон, Мишель Уильямс, Ребекка Фергюсон (II), Зендея, Кила Сеттл, Яхья Абдул-Матин II, Остин Джонсон, Эллис Рубин, Скайлар Данн

    Описание

    Финеас Тейлор Барнум всегда мечтал войти в историю, но все его занятия не приносили ему удовольствия. И когда, казалось, весь мир обернулся против него, он решает пойти вслед за своей мечтой. Барнум создает завораживающее представление-сенсацию, которое стало рождением мирового шоу-бизнеса.

    Возраст: 12+ (зрителям, достигшим 12 лет)
    Рейтинг MPAA: PG (рекомендуется присутствие родителей)
    Премьера (мир): 20 декабря 2017
    Премьера (РФ): 4 января 2018, Двадцатый Век Фокс СНГ

    Релиз от: Magnetto83
    Продолжительность: 01: 44: 49
    Качество: BDRip 1080p-LQ
    Перевод: Дублированный (Лицензия EUR)
    Субтитры: Русские (Форс.+Полные), Украинские (Форс.+Полные), Английские (Full+SHD+SHD Colored)
    Видео: AVC/H.264, 1920x800, (2, 40: 1), 5515 kbps, 23.976 fps
    Аудио: AC3, 6 ch, 448 kbps - Русский
    Аудио: AC3, 6 ch, 448 kbps - Украинский, отдельно
    General
    Unique ID : 202041916593576288768758391619792281698 (0x97FFDB93772E29429DDA77E0425A2062)
    Complete name : Величайший шоумен 2017 Dub BDRip 1080p.mkv
    Format : Matroska
    Format version : Version 4/Version 2
    File size : 4.37 GiB
    Duration : 1 h 44 min
    Overall bit rate : 5 966 kb/s
    Movie name : Величайший шоумен 2017 Dub Rus BDRip 1080p By R.G. GoldenShara
    Encoded date : UTC 2018-04-27 12: 44: 02
    Writing application : mkvmerge v7.0.0 (\'Where We Going\') 64bit built on Jun 9 2014 15: 16: 27
    Writing library : libebml v1.3.0 + libmatroska v1.4.1
    Cover : Yes
    Attachments : Cover
    Video
    ID : 1
    Format : AVC
    Format/Info : Advanced Video Codec
    Format profile : High@L4.1
    Format settings : CABAC/5 Ref Frames
    Format settings, CABAC : Yes
    Format settings, ReFrames : 5 frames
    Codec ID : V_MPEG4/ISO/AVC
    Duration : 1 h 44 min
    Bit rate : 5 515 kb/s
    Width : 1 920 pixels
    Height : 800 pixels
    Display aspect ratio : 2.40: 1
    Frame rate mode : Constant
    Frame rate : 23.976 (24000/1001) FPS
    Color space : YUV
    Chroma subsampling : 4: 2: 0
    Bit depth : 8 bits
    Scan type : Progressive
    Bits/(Pixel*Frame) : 0.150
    Stream size : 4.04 GiB (92%)
    Title : Величайший шоумен 2017 BDRip 1080p Magnetto 83
    Writing library : x264 core 146 r2538 121396c
    Encoding settings : cabac=1/ref=5/deblock=1: -3: -3/analyse=0x3: 0x113/me=umh/subme=11/psy=1/psy_rd=1.00: 0.00/mixed_ref=1/me_range=32/chroma_me=1/trellis=2/8x8dct=1/cqm=0/deadzone=21, 11/fast_pskip=0/chroma_qp_offset=-2/threads=3/lookahead_threads=1/sliced_threads=0/nr=0/decimate=1/interlaced=0/bluray_compat=0/constrained_intra=0/bframes=8/b_pyramid=2/b_adapt=2/b_bias=0/direct=3/weightb=1/open_gop=0/weightp=2/keyint=250/keyint_min=23/scenecut=40/intra_refresh=0/rc=2pass/mbtree=0/bitrate=5515/ratetol=1.0/qcomp=0.60/qpmin=0/qpmax=69/qpstep=4/cplxblur=20.0/qblur=0.5/ip_ratio=1.40/pb_ratio=1.30/aq=2: 1.00
    Language : English
    Default : Yes
    Forced : No
    Audio
    ID : 2
    Format : AC-3
    Format/Info : Audio Coding 3
    Codec ID : A_AC3
    Duration : 1 h 44 min
    Bit rate mode : Constant
    Bit rate : 448 kb/s
    Channel(s) : 6 channels
    Channel positions : Front: L C R, Side: L R, LFE
    Sampling rate : 48.0 kHz
    Frame rate : 31.250 FPS (1536 SPF)
    Bit depth : 16 bits
    Compression mode : Lossy
    Stream size : 336 MiB (8%)
    Title : DD 5.1 @ 448 kbps - Дубляж | Blu-ray CEE |
    Language : Russian
    Service kind : Complete Main
    Default : Yes
    Forced : No
    Text #1
    ID : 3
    Format : UTF-8
    Codec ID : S_TEXT/UTF8
    Codec ID/Info : UTF-8 Plain Text
    Duration : 1 h 36 min
    Bit rate : 45 b/s
    Count of elements : 535
    Stream size : 31.7 KiB (0%)
    Title : Форс. (Только на песни)
    Language : Russian
    Default : Yes
    Forced : No
    Text #2
    ID : 4
    Format : UTF-8
    Codec ID : S_TEXT/UTF8
    Codec ID/Info : UTF-8 Plain Text
    Duration : 28 min 20 s
    Bit rate : 1 b/s
    Count of elements : 11
    Stream size : 424 Bytes (0%)
    Title : Форс.
    Language : Russian
    Default : No
    Forced : No
    Text #3
    ID : 5
    Format : UTF-8
    Codec ID : S_TEXT/UTF8
    Codec ID/Info : UTF-8 Plain Text
    Duration : 1 h 43 min
    Bit rate : 87 b/s
    Count of elements : 1375
    Stream size : 66.2 KiB (0%)
    Title : Полные | Blu-ray CEE |
    Language : Russian
    Default : No
    Forced : No
    Text #4
    ID : 6
    Format : UTF-8
    Codec ID : S_TEXT/UTF8
    Codec ID/Info : UTF-8 Plain Text
    Duration : 1 h 36 min
    Bit rate : 112 b/s
    Count of elements : 1605
    Stream size : 78.8 KiB (0%)
    Title : Полные | Focs Studio |
    Language : Russian
    Default : No
    Forced : No
    Text #5
    ID : 7
    Format : UTF-8
    Codec ID : S_TEXT/UTF8
    Codec ID/Info : UTF-8 Plain Text
    Duration : 1 h 36 min
    Bit rate : 44 b/s
    Count of elements : 559
    Stream size : 31.6 KiB (0%)
    Title : Форс.
    Language : Ukrainian
    Default : No
    Forced : No
    Text #6
    ID : 8
    Format : UTF-8
    Codec ID : S_TEXT/UTF8
    Codec ID/Info : UTF-8 Plain Text
    Duration : 1 h 43 min
    Bit rate : 98 b/s
    Count of elements : 1488
    Stream size : 75.2 KiB (0%)
    Title : Повні
    Language : Ukrainian
    Default : No
    Forced : No
    Text #7
    ID : 9
    Format : UTF-8
    Codec ID : S_TEXT/UTF8
    Codec ID/Info : UTF-8 Plain Text
    Duration : 1 h 43 min
    Bit rate : 79 b/s
    Count of elements : 1774
    Stream size : 60.6 KiB (0%)
    Title : Full
    Language : English
    Default : No
    Forced : No
    Text #8
    ID : 10
    Format : UTF-8
    Codec ID : S_TEXT/UTF8
    Codec ID/Info : UTF-8 Plain Text
    Duration : 1 h 43 min
    Bit rate : 83 b/s
    Count of elements : 1872
    Stream size : 63.5 KiB (0%)
    Title : SDH
    Language : English
    Default : No
    Forced : No
    Text #9
    ID : 11
    Format : UTF-8
    Codec ID : S_TEXT/UTF8
    Codec ID/Info : UTF-8 Plain Text
    Duration : 1 h 43 min
    Bit rate : 102 b/s
    Count of elements : 1864
    Stream size : 77.8 KiB (0%)
    Title : SDH-Colored
    Language : English
    Default : No
    Forced : No
    Menu
    00: 00: 00.000 : en: 00: 00: 00.000
    00: 03: 21.618 : en: 00: 03: 21.618
    00: 11: 33.985 : en: 00: 11: 33.985
    00: 16: 21.314 : en: 00: 16: 21.314
    00: 21: 13.731 : en: 00: 21: 13.731
    00: 25: 04.169 : en: 00: 25: 04.169
    00: 32: 10.178 : en: 00: 32: 10.178
    00: 36: 09.626 : en: 00: 36: 09.626
    00: 41: 38.413 : en: 00: 41: 38.413
    00: 44: 41.053 : en: 00: 44: 41.053
    00: 48: 24.151 : en: 00: 48: 24.151
    00: 53: 11.146 : en: 00: 53: 11.146
    00: 56: 20.711 : en: 00: 56: 20.711
    01: 01: 34.816 : en: 01: 01: 34.816
    01: 07: 33.883 : en: 01: 07: 33.883
    01: 12: 00.983 : en: 01: 12: 00.983
    01: 18: 23.699 : en: 01: 18: 23.699
    01: 22: 07.131 : en: 01: 22: 07.131
    01: 29: 04.798 : en: 01: 29: 04.798
    01: 37: 09.449 : en: 01: 37: 09.449
    YouTube

    Скриншоты для ознакомления


    Релизы фильма Величайший шоумен/The Greatest Showman на NNM Club
    Время раздачи: с 9: 00 до 23: 00


    Онлайн видео Величайший шоумен



    Величайший шоумен/The Greatest Showman (2017) BDRip [H.264/1080p-LQ]
    Рейтинг →
     (голосов: 1, оценка 4/5, голосовать можно 1 раз )

    Другие торренты по теме:

  • Величайший шоумен / The Greatest Showman (2017) WEBRip [H.264 / 720p-LQ] [EN / KOR Sub]
  • Величайший шоумен / The Greatest Showman (2017) WEBRip [H.264 / 1080p-LQ] [MVO] [AD]
  • Величайший шоумен / The Greatest Showman (2017) WEB-DLRip [H.264 / 1080p-LQ] [Line] [AD]
  • Величайший шоумен / The Greatest Showman (2017) HDRip [MVO]
  • Величайший шоумен / The Greatest Showman (2017) BDRip [H.264 / 1080p] [MVO] [PR]
  • Величайший шоумен / The Greatest Showman (2017) BDRemux [H.264 / 1080p] [EN / EN, Fr, Sp Sub]
  • Величайший шоумен / The Greatest Showman (2017) BDRip [H.264 / 1080p] [MVO]
  • Величайший шоумен / The Greatest Showman (2017) BDRemux [H.264 / 1080p] [MVO]


    • Комментарии (0):

      Информация

      Информация

        Посетители, находящиеся в группе Гости, не могут оставлять комментарии в данной новости.

        ↓ Меню




        ↓ Опрос

        Вы добавили сайт в закладки?
        Да
        Нет


        Top 10 за месяц (Фильмы)