.
Авторизация | Регистрация
Хочешь лучшие торренты? Добавь свой email!
Добавить

Торрент скачать бесплатно

  • support: webmaster@btracker.org
» » Не в себе / Unsane (2018) WEB-DLRip [H.264 / 1080p-LQ] [MVO, AD] торрент скачать бесплатно


    Не в себе / Unsane (2018) WEB-DLRip [H.264 / 1080p-LQ] [MVO, AD] торрент скачать бесплатно

    Опубликовал: Админ | Дата: 1-06-2018, 05:00 | .torrent скачали: 0

    Не в себе / Unsane (2018) WEB-DLRip [H.264 / 1080p-LQ] [MVO, AD]Производство: США, Extension 765, New Regency Pictures, Regency Enterprises
    Жанр: Ужасы, Триллер
    Режиссер: Стивен Содерберг
    Продюсер: Кори Бэйс, Дэн Фелмэн, Джозеф Маллок

    Актеры
    Джошуа Леонард, Клер Фой, Сара Стайлс, Марк Кадиш, Эми Ирвинг, Колин Вуделл, Мира Лукреция Тейлор, Линда Моз, Зак Черри, Полли МакКи

    Описание

    Девушка покидает родной город, чтобы сбежать от проблемного прошлого и найти новую работу. Но когда она не по своей воле оказывается в психиатрическом учреждении, ей приходится столкнуться со своим самым большим страхом. Но реален ли он, или это — просто плод ее воображения? Героине кажется, что никто не верит ей, а власти не могут или не хотят помочь, поэтому она должна в одиночку противостоять своим страхам.

    Возраст: 18+ (зрителям, достигшим 18 лет. запрещено для детей)
    Рейтинг MPAA: R (лицам до 17 лет обязательно присутствие взрослого)
    Дата мировой премьеры: 21 февраля 2018
    Дата российской премьеры: 29 марта 2018, Двадцатый Век Фокс СНГ
    Продолжительность: 01: 38: 11
    Качество видео: WEB-DLRip
    Перевод: Многоголосый закадровый (MUZOBOZ)
    Субтитры: Отсутствуют
    Реклама: Присутствуют текстовые вставки рекламы
    Видео: AVC/H.264, 1688x1080, 5250 kbps, 23.976 fps
    Аудио: 48 kHz, AC3 Dolby Digital, 2/0 (L, R) ch, ~384 kbps
    Общее
    Уникальный идентификатор : 216339834994830618685125789916729984574 (0xA2C189611C34EC86A5BC7374E9D8463E)
    Полное имя : D: Не.в.себе.2018.WEB-DLRip.1080p.NNMClub.mkv
    Формат : Matroska
    Версия формата : Version 4/Version 2
    Размер файла : 3, 87 Гбайт
    Продолжительность : 1 ч. 38 м.
    Режим общего битрейта : Переменный
    Общий поток : 5636 Кбит/сек
    Дата кодирования : UTC 2018-05-31 17: 32: 39
    Программа кодирования : mkvmerge v8.3.0 (\'Over the Horizon\') 64bit
    Библиотека кодирования : libebml v1.3.1 + libmatroska v1.4.2
    Видео
    Идентификатор : 1
    Формат : AVC
    Формат/Информация : Advanced Video Codec
    Профиль формата : High@L4.1
    Настройки формата : CABAC/4 Ref Frames
    Параметр CABAC формата : Да
    Параметр RefFrames формата : 4 кадра
    Идентификатор кодека : V_MPEG4/ISO/AVC
    Продолжительность : 1 ч. 38 м.
    Вид битрейта : Переменный
    Битрейт : 5250 Кбит/сек
    Максимальный битрейт : 6000 Кбит/сек
    Ширина : 1688 пикселей
    Высота : 1080 пикселей
    Соотношение сторон : 16: 10
    Режим частоты кадров : Постоянный
    Частота кадров : 23, 976 (24000/1001) кадра/сек
    Стандарт вещания : Component
    Цветовое пространство : YUV
    Субдискретизация насыщенности : 4: 2: 0
    Битовая глубина : 8 бит
    Тип развёртки : Прогрессивная
    Бит/(Пиксели*Кадры) : 0.120
    Размер потока : 3, 60 Гбайт (93%)
    Язык : English
    Default : Да
    Forced : Нет
    Цветовой диапазон : Limited
    Основные цвета : BT.709
    Характеристики трансфера : BT.709
    Коэффициенты матрицы : BT.709
    Аудио
    Идентификатор : 2
    Формат : AC-3
    Формат/Информация : Audio Coding 3
    Идентификатор кодека : A_AC3
    Продолжительность : 1 ч. 38 м.
    Вид битрейта : Постоянный
    Битрейт : 384 Кбит/сек
    Каналы : 2 канала
    Расположение каналов : Front: L R
    Частота : 48, 0 КГц
    Частота кадров : 31, 250 кадров/сек (1536 SPF)
    Битовая глубина : 16 бит
    Метод сжатия : С потерями
    Размер потока : 270 Мбайт (7%)
    Язык : Russian
    ServiceKind/String : Complete Main
    Default : Да
    Forced : Нет

    Скриншоты для ознакомления



    Все одноименные релизы в Клубе
    Время раздачи: 24/7 (до появления первых 3-5 скачавших)


    Онлайн видео Не в себе



    Не в себе/Unsane (2018) WEB-DLRip [H.264/1080p-LQ] [MVO, AD]
    Рейтинг →
     (голосов: 1, оценка 4/5, голосовать можно 1 раз )

    Другие торренты по теме:

  • Не в себе / Unsane (2018) BDRip [H.264 / 1080p] [MVO] [PR]
  • Не в себе / Unsane (2018) HDRip [MVO]
  • Не в себе / Unsane (2018) BDRemux [H.264 / 1080p] [EN / EN, Fr, Sp Sub]


    • Комментарии (0):

      Информация

      Информация

        Посетители, находящиеся в группе Гости, не могут оставлять комментарии в данной новости.

        ↓ Меню




        ↓ Опрос

        Вы добавили сайт в закладки?
        Да
        Нет


        Top 10 за месяц (Фильмы)