.
Авторизация | Регистрация
Хочешь лучшие торренты? Добавь свой email!
Добавить

Торрент скачать бесплатно

  • support: webmaster@btracker.org
» » Тихое место / A Quiet Place (2018) WEBRip [H.264 / 1080p-LO] [MVO] торрент скачать бесплатно


    Тихое место / A Quiet Place (2018) WEBRip [H.264 / 1080p-LO] [MVO] торрент скачать бесплатно

    Опубликовал: Админ | Дата: 1-06-2018, 05:00 | .torrent скачали: 0

    Тихое место / A Quiet Place (2018) WEBRip [H.264 / 1080p-LO] [MVO]Производство: США | Platinum Dunes, Sunday Night Productions
    Жанр: Ужасы, фантастика, триллер, драма
    Режиссер: Джон Красински

    Актеры
    Эмили Блант, Джон Красински, Милли Симмондс, Ноа Джуп, Кейд Вудворд, Леон Рассом, Дорис МакКарти, Рода Пелл

    Описание

    Семья с двумя детьми живёт на отдалённой ферме. Казалось бы, жизнь этих людей совершенно не отличается от жизни других таких семей, но они живут в месте, которое наполнено ужасными монстрами, реагирующими на любой звук. Семейство разучило целый комплекс специальных жестов, которые помогают им общаться друг с другом, не издавая ни единого звука. Кроме того, каждый из членов семьи должен очень тихо передвигаться, чтобы опасные существа их не услышали. Однако дом, где живут дети, не может быть самым тихим местом на земле.

    Возраст: 16+ (зрителям, достигшим 16 лет)
    Рейтинг MPAA: PG-13 (детям до 13 лет просмотр нежелателен)
    Дата мировой премьеры: 9 марта 2018
    Дата российской премьеры: 12 апреля 2018, Централ Партнершип
    Цифровой релиз: 5 июля 2018, Paramount
    Продолжительность: 01: 30: 06
    Качество видео: WEBRip
    Перевод: Многоголосый закадровый (HDrezka Studio)
    Субтитры: Корейские (неотключаемые), русские, английские
    Видео: AVC/H.264, 1920x800 (2.40: 1), ~5505 kbps, 29.97 fps
    Аудио 1: AC3, 2 ch, 48.0 kHz, 192 kbps cbr - Русский
    Аудио 2: AC3, 2 ch, 48.0 kHz, 192 kbps cbr - Английский

    General
    Unique ID : 194394399899034824269928283014005283479 (0x923EFFE46351D8DDB6F64136F5E45A97)
    Complete name : D: A_Quiet_Place_2018_WEBRip_1080p.mkv
    Format : Matroska
    Format version : Version 4/Version 2
    File size : 3.71 GiB
    Duration : 1 h 30 min
    Overall bit rate : 5 891 kb/s
    Encoded date : UTC 2018-05-30 19: 49: 29
    Writing application : mkvmerge v23.0.0 (\'The Bride Said No\') 64-bit
    Writing library : libebml v1.3.6 + libmatroska v1.4.9
    Video
    ID : 1
    Format : AVC
    Format/Info : Advanced Video Codec
    Format profile : High@L4.1
    Format settings, CABAC : Yes
    Format settings, ReFrames : 4 frames
    Codec ID : V_MPEG4/ISO/AVC
    Duration : 1 h 30 min
    Bit rate : 5 505 kb/s
    Width : 1 920 pixels
    Height : 800 pixels
    Display aspect ratio : 2.40: 1
    Frame rate mode : Constant
    Frame rate : 29.970 (30000/1001) FPS
    Color space : YUV
    Chroma subsampling : 4: 2: 0
    Bit depth : 8 bits
    Scan type : Progressive
    Bits/(Pixel*Frame) : 0.120
    Stream size : 3.46 GiB (93%)
    Language : English
    Default : Yes
    Forced : No
    Audio #1
    ID : 2
    Format : AC-3
    Format/Info : Audio Coding 3
    Format settings, Endianness : Big
    Codec ID : A_AC3
    Duration : 1 h 30 min
    Bit rate mode : Constant
    Bit rate : 192 kb/s
    Channel(s) : 2 channels
    Channel positions : Front: L R
    Sampling rate : 48.0 kHz
    Frame rate : 31.250 FPS (1536 spf)
    Bit depth : 16 bits
    Compression mode : Lossy
    Delay relative to video : 24 ms
    Stream size : 124 MiB (3%)
    Title : HDrezka Studio
    Language : Russian
    Service kind : Complete Main
    Default : Yes
    Forced : No
    Audio #2
    ID : 3
    Format : AC-3
    Format/Info : Audio Coding 3
    Format settings, Endianness : Big
    Codec ID : A_AC3
    Duration : 1 h 30 min
    Bit rate mode : Constant
    Bit rate : 192 kb/s
    Channel(s) : 2 channels
    Channel positions : Front: L R
    Sampling rate : 48.0 kHz
    Frame rate : 31.250 FPS (1536 spf)
    Bit depth : 16 bits
    Compression mode : Lossy
    Delay relative to video : 24 ms
    Stream size : 124 MiB (3%)
    Language : English
    Service kind : Complete Main
    Default : No
    Forced : No
    Text #1
    ID : 4
    Format : UTF-8
    Codec ID : S_TEXT/UTF8
    Codec ID/Info : UTF-8 Plain Text
    Duration : 1 h 19 min
    Bit rate : 9 b/s
    Count of elements : 140
    Stream size : 5.50 KiB (0%)
    Language : Russian
    Default : Yes
    Forced : No
    Text #2
    ID : 5
    Format : UTF-8
    Codec ID : S_TEXT/UTF8
    Codec ID/Info : UTF-8 Plain Text
    Duration : 1 h 19 min
    Bit rate : 6 b/s
    Count of elements : 138
    Stream size : 3.59 KiB (0%)
    Language : English
    Default : No
    Forced : No

    Скриншоты для ознакомления



    Все одноименные релизы в Клубе
    Время раздачи: 24/7 (до появления первых 3-5 скачавших)


    Онлайн видео Тихое место



    Тихое место/A Quiet Place (2018) WEBRip [H.264/1080p-LO] [MVO]
    Рейтинг →
     (голосов: 1, оценка 3/5, голосовать можно 1 раз )

    Другие торренты по теме:

  • Тихое место / A Quiet Place (2018) TS [AD]
  • Тихое место / A Quiet Place (2018) WEBRip [H.264] [MP4|1280x720] [VO]
  • Тихое место / A Quiet Place (2018) WEBRip [MVO]


    • Комментарии (0):

      Информация

      Информация

        Посетители, находящиеся в группе Гости, не могут оставлять комментарии в данной новости.

        ↓ Меню




        ↓ Опрос

        Вы добавили сайт в закладки?
        Да
        Нет


        Top 10 за месяц (Фильмы)