.
Авторизация | Регистрация
Хочешь лучшие торренты? Добавь свой email!
Добавить

Торрент скачать бесплатно

  • support: webmaster@btracker.org
» » Танки (2018) WEB-DLRip [H.264] торрент скачать бесплатно


    Танки (2018) WEB-DLRip [H.264] торрент скачать бесплатно

    Опубликовал: Админ | Дата: 1-06-2018, 05:00 | .torrent скачали: 0

    Танки (2018) WEB-DLRip [H.264]Производство: Россия
    Жанр: Приключения, история, военный
    Режиссер: Ким Дружинин
    Продюсер: Дмитрий Щербанов, Олег Антипов

    Актеры
    Андрей Мерзликин, Аглая Тарасова, Александр Тютин, Сергей Стукалов, Антон Филипенко, Алексей Овсянников, Сергей Четвертков, Николай Горшков, Дмитрий Поднозов, Юрий Ицков

    Описание

    На пороге войны с фашистской Германией инженер Михаил Кошкин разрабатывает прототип нового инновационного танка Т-34. Чтобы доказать уникальность боевой машины, Кошкин и его команда отправляются в Москву на танках своим ходом. Но вскоре пробег превращается в непредсказуемую гонку, где бездорожье лишь меньшее из зол… Пройдя череду опасных приключений и благодаря безупречным техническим и боевым качествам новых танков, героям удается одержать верх над преследователями и доказать превосходство Т-34.

    Возраст: 12+ (зрителям, достигшим 12 лет)
    Дата российской премьеры: 26 апреля 2018, Двадцатый Век Фокс СНГ
    Дата выхода DVD/Blu-ray релиза: 18 июня 2018, НД Плэй
    Продолжительность: 01: 33: 13
    Качество видео: WEB-DLRip
    Перевод: Не требуется (русский) iTunes
    Субтитры: отсутствуют.
    Видео: AVC/H.264, 1024x456, ~2043 kbps
    Аудио: AC3, 6 ch, 384 kbps

    TankI.2018.WEB-DLRip(AVC).mkv
    Format : Matroska
    Format version : Version 4/Version 2
    File size : 1.58 GiB
    Duration : 1 h 33 min
    Overall bit rate : 2 429 kb/s
    Movie name : TankI.2018 #TorpedoUK#
    Encoded date : UTC 2018-05-31 03: 07: 17
    Writing application : mkvmerge v8.3.0 (\'Over the Horizon\') 64bit
    Writing library : libebml v1.3.1 + libmatroska v1.4.2
    Video
    ID : 1
    Format : AVC
    Format/Info : Advanced Video Codec
    Format profile : High@L4.1
    Format settings : CABAC/10 Ref Frames
    Format settings, CABAC : Yes
    Format settings, ReFrames : 10 frames
    Codec ID : V_MPEG4/ISO/AVC
    Duration : 1 h 33 min
    Bit rate : 2 043 kb/s
    Width : 1 024 pixels
    Height : 456 pixels
    Display aspect ratio : 2.25: 1
    Frame rate mode : Constant
    Frame rate : 23.976 (24000/1001) FPS
    Color space : YUV
    Chroma subsampling : 4: 2: 0
    Bit depth : 8 bits
    Scan type : Progressive
    Bits/(Pixel*Frame) : 0.182
    Stream size : 1.33 GiB (84%)
    Writing library : x264 core 146 r2538 121396c
    Encoding settings : cabac=1/ref=10/deblock=1: -2: -3/analyse=0x3: 0x133/me=umh/subme=11/psy=1/psy_rd=0.97: 0.07/mixed_ref=1/me_range=48/chroma_me=1/trellis=2/8x8dct=1/cqm=0/deadzone=21, 11/fast_pskip=1/chroma_qp_offset=-3/threads=6/lookahead_threads=1/sliced_threads=0/nr=0/decimate=1/interlaced=0/bluray_compat=0/constrained_intra=0/bframes=10/b_pyramid=2/b_adapt=2/b_bias=0/direct=3/weightb=1/open_gop=0/weightp=2/keyint=240/keyint_min=23/scenecut=40/intra_refresh=0/rc_lookahead=40/rc=2pass/mbtree=0/bitrate=2043/ratetol=1.0/qcomp=0.60/qpmin=0/qpmax=69/qpstep=4/cplxblur=20.0/qblur=0.5/vbv_maxrate=50000/vbv_bufsize=62500/nal_hrd=none/filler=0/ip_ratio=1.40/pb_ratio=1.30/aq=1: 1.00
    Default : Yes
    Forced : No
    Audio
    ID : 2
    Format : AC-3
    Format/Info : Audio Coding 3
    Codec ID : A_AC3
    Duration : 1 h 33 min
    Bit rate mode : Constant
    Bit rate : 384 kb/s
    Channel(s) : 6 channels
    Channel positions : Front: L C R, Side: L R, LFE
    Sampling rate : 48.0 kHz
    Frame rate : 31.250 FPS (1536 SPF)
    Bit depth : 16 bits
    Compression mode : Lossy
    Stream size : 256 MiB (16%)
    Title : iTunes
    Language : Russian
    Service kind : Complete Main
    Default : Yes
    Forced : No

    Скриншоты для ознакомления



    Все одноименные релизы в Клубе
    Время раздачи: 24/7 (до появления первых 3-5 скачавших)


    Онлайн видео Танки (2018) WEB



    Танки (2018) WEB-DLRip [H.264]
    Рейтинг →
     (голосов: 1, оценка 3/5, голосовать можно 1 раз )

    Другие торренты по теме:

  • Танки (2018) WEB-DLRip
  • Танки Второй мировой войны (2013) WEB-DLRip [H.264] (2 серии из 2)
  • Танки (2018) WEB-DLRip [H.264 / 720p-LQ]
  • Танки (2018) WEB-DLRip [576p] iPad


    • Комментарии (0):

      Информация

      Информация

        Посетители, находящиеся в группе Гости, не могут оставлять комментарии в данной новости.

        ↓ Меню




        ↓ Опрос

        Вы добавили сайт в закладки?
        Да
        Нет


        Top 10 за месяц (Фильмы)