.
Авторизация | Регистрация
Хочешь лучшие торренты? Добавь свой email!
Добавить

Торрент скачать бесплатно

  • support: webmaster@btracker.org
» » Собибор (2018) WEB-DL [H.264 / 1080p-LQ] торрент скачать бесплатно


    Собибор (2018) WEB-DL [H.264 / 1080p-LQ] торрент скачать бесплатно

    Опубликовал: Админ | Дата: 1-06-2018, 05:00 | .torrent скачали: 0

    Собибор (2018) WEB-DL [H.264 / 1080p-LQ]Производство: Россия, Патриот Продакшнс
    Жанр: Военный, Драма
    Режиссер: Константин Хабенский
    Продюсер: Эльмира Айнулова, Глеб Фетисов, Мария Журомская

    Актеры
    Константин Хабенский, Кристофер Ламберт, Фелисе Янкелль, Дайнюс Казлаускас, Сергей Годин, Роман Агеев, Гела Месхи, Михалина Ольшанска, Мария Кожевникова, Вольфганг Черны

    Описание

    История сопротивления человеческого духа бездушной машине уничтожения. В октябре 1943 года заключённые лагеря Собибор во главе с лейтенантом Красной Армии Александром Печерским поднимают восстание — единственное успешное восстание в нацистском лагере смерти.

    Возраст: 12+ (зрителям, достигшим 12 лет)
    Дата мировой премьеры: 4 мая 2018
    Дата российской премьеры: 3 мая 2018, Каропрокат
    Релиз от: NNMClub
    Продолжительность: 01: 57: 05
    Качество видео: WEB-DL
    Перевод: Не требуется (русский) iTunes
    Субтитры: Отсутствуют
    Видео: AVC/H.264, 1920x806 (2.40: 1), 4542 kbps
    Аудио: 48 kHz, AC3 Dolby Digital, 3/2 (L, C, R, l, r) + LFE ch, ~384 kbps
    Общее
    Уникальный идентификатор : 238925192340037257975328542048718385426 (0xB3BF517826C5F988BF52B40E151F7112)
    Полное имя : D: Собибор.2018.WEB-DL.1080p.NNMClub.mkv
    Формат : Matroska
    Версия формата : Version 2
    Размер файла : 4, 03 Гбайт
    Продолжительность : 1 ч. 57 м.
    Общий поток : 4928 Кбит/сек
    Название фильма : Собибор.2018.WEB-DL.1080p.NNMClub
    Дата кодирования : UTC 2018-05-31 18: 16: 18
    Программа кодирования : mkvmerge v8.3.0 (\'Over the Horizon\') 64bit
    Библиотека кодирования : libebml v1.3.1 + libmatroska v1.4.2
    Видео
    Идентификатор : 1
    Формат : AVC
    Формат/Информация : Advanced Video Codec
    Профиль формата : High@L4
    Настройки формата : CABAC/5 Ref Frames
    Параметр CABAC формата : Да
    Параметр RefFrames формата : 5 кадров
    Идентификатор кодека : V_MPEG4/ISO/AVC
    Продолжительность : 1 ч. 57 м.
    Битрейт : 4542 Кбит/сек
    Ширина : 1920 пикселей
    Высота : 806 пикселей
    Соотношение сторон : 2, 40: 1
    Режим частоты кадров : Постоянный
    Частота кадров : 24, 000 кадра/сек
    Цветовое пространство : YUV
    Субдискретизация насыщенности : 4: 2: 0
    Битовая глубина : 8 бит
    Тип развёртки : Прогрессивная
    Бит/(Пиксели*Кадры) : 0.122
    Размер потока : 3, 71 Гбайт (92%)
    Язык : English
    Default : Да
    Forced : Нет
    Цветовой диапазон : Limited
    Основные цвета : BT.709
    Характеристики трансфера : BT.709
    Коэффициенты матрицы : BT.709
    Аудио
    Идентификатор : 2
    Формат : AC-3
    Формат/Информация : Audio Coding 3
    Идентификатор кодека : A_AC3
    Продолжительность : 1 ч. 57 м.
    Вид битрейта : Постоянный
    Битрейт : 384 Кбит/сек
    Каналы : 6 каналов
    Расположение каналов : Front: L C R, Side: L R, LFE
    Частота : 48, 0 КГц
    Частота кадров : 31, 250 кадров/сек (1536 SPF)
    Битовая глубина : 16 бит
    Метод сжатия : С потерями
    Размер потока : 322 Мбайт (8%)
    Язык : Russian
    ServiceKind/String : Complete Main
    Default : Да
    Forced : Нет

    Скриншоты для ознакомления



    Все одноименные релизы в Клубе
    Время раздачи: 24/7 (круглосуточно) (до появления первых 3-5 скачавших)


    Онлайн видео Собибор (2018) WEB-DL [H.264



    Собибор (2018) WEB-DL [H.264/1080p-LQ]
    Рейтинг →
     (голосов: 1, оценка 3/5, голосовать можно 1 раз )

    Другие торренты по теме:

  • Собибор (2018) WEB-DL [1080p] ATV


    • Комментарии (0):

      Информация

      Информация

        Посетители, находящиеся в группе Гости, не могут оставлять комментарии в данной новости.

        ↓ Меню




        ↓ Опрос

        Вы добавили сайт в закладки?
        Да
        Нет


        Top 10 за месяц (Фильмы)