.
Авторизация | Регистрация
Хочешь лучшие торренты? Добавь свой email!
Добавить

Торрент скачать бесплатно

  • support: webmaster@btracker.org
» » Скиф (2017) BDRip [H.264 / 1080p] торрент скачать бесплатно


    Скиф (2017) BDRip [H.264 / 1080p] торрент скачать бесплатно

    Опубликовал: Админ | Дата: 1-06-2018, 05:00 | .torrent скачали: 0

    Скиф (2017) BDRip [H.264 / 1080p]Производство: Россия/Кинокомпания СТВ
    Жанр: Драма, История, Фэнтези, Боевик, Приключения
    Режиссер: Рустам Мосафи

    Актеры
    Алексей Фаддеев, Виталий Кравченко, Александр Кузнецов, Александр Пацевич, Юрий Цурило, Андрей Пермяков, Василиса Измайлова, Алексей Овсянников, Фёдор Рощин, Рустам Мосафир

    Описание

    Действие фильма происходит во время смены цивилизаций. В Евразии начинается новая эра. Ушли в небытие гордые воины — скифы, их вымирающие потомки превратились в безжалостных наемных убийц, волков Ареса. Ратнику Лютобору предстоит тяжелое испытание. Втянутый в междоусобные интриги он отправляется в опасный путь ради спасения семьи, а его проводником становится пленный скиф Куница. Они — враги и молятся разным богам, но вынуждены идти вместе. Через дикий степной мир к пристанищу последних скифов, где их ждет почти неминуемая смерть...

    Возраст: 18+ (зрителям, достигшим 18 лет. запрещено для детей)
    Дата российской премьеры: 18 января 2018, Наше Кино
    Релиз от: walledol
    Продолжительность: 01: 44: 32
    Качество видео: BDRip
    Перевод: Не требуется (русский)
    Субтитры: Oтсутствуют
    Видео: AVC/H.264, 1920x804, ~13, 6 Мbps, 23.976 fps
    Аудио 1: DTS, 6 ch, 1509 kbps - Русский
    Аудио 2: AC3, 6 ch, 640 kbps - Русский

    Общее
    Уникальный идентификатор : 255725776975157152682618374679223007269 (0xC062FE3E9B856F279042589E0996F825)
    Полное имя : Скиф.2018.BDRip.1080p.mkv
    Формат : Matroska
    Версия формата : Version 4/Version 2
    Размер файла : 11, 5 Гбайт
    Продолжительность : 1 ч. 44 м.
    Общий поток : 15, 8 Мбит/сек
    Название фильма : Скиф.2018.BDRip.1080p
    Дата кодирования : UTC 2018-05-31 16: 10: 15
    Программа кодирования : mkvmerge v23.0.0 (\'The Bride Said No\') 64-bit
    Библиотека кодирования : libebml v1.3.6 + libmatroska v1.4.9
    Видео
    Идентификатор : 1
    Формат : AVC
    Формат/Информация : Advanced Video Codec
    Профиль формата : High@L4.1
    Настройки формата : CABAC/5 Ref Frames
    Параметр CABAC формата : Да
    Параметр RefFrames формата : 5 кадров
    Идентификатор кодека : V_MPEG4/ISO/AVC
    Продолжительность : 1 ч. 44 м.
    Битрейт : 13, 6 Мбит/сек
    Ширина : 1920 пикселей
    Высота : 804 пикселя
    Соотношение сторон : 2, 40: 1
    Режим частоты кадров : Постоянный
    Частота кадров : 23, 976 (23976/1000) кадра/сек
    Цветовое пространство : YUV
    Субдискретизация насыщенности : 4: 2: 0
    Битовая глубина : 8 бит
    Тип развёртки : Прогрессивная
    Бит/(Пиксели*Кадры) : 0.369
    Размер потока : 9, 94 Гбайт (86%)
    Заголовок : rip by -=walledol=-
    Библиотека кодирования : x264 core 155 r2901 7d0ff22
    Настройки программы : cabac=1/ref=5/deblock=1: -3: -3/analyse=0x3: 0x133/me=umh/subme=11/psy=1/psy_rd=1.00: 0.02/mixed_ref=1/me_range=32/chroma_me=1/trellis=2/8x8dct=1/cqm=0/deadzone=21, 11/fast_pskip=0/chroma_qp_offset=-3/threads=12/lookahead_threads=3/sliced_threads=0/nr=0/decimate=1/interlaced=0/bluray_compat=0/constrained_intra=0/bframes=10/b_pyramid=2/b_adapt=2/b_bias=0/direct=3/weightb=1/open_gop=0/weightp=2/keyint=240/keyint_min=23/scenecut=40/intra_refresh=0/rc_lookahead=60/rc=2pass/mbtree=0/bitrate=13640/ratetol=1.0/qcomp=0.60/qpmin=0/qpmax=69/qpstep=4/cplxblur=20.0/qblur=0.5/vbv_maxrate=30000/vbv_bufsize=33000/nal_hrd=none/filler=0/ip_ratio=1.40/pb_ratio=1.30/aq=3: 0.75
    Язык : Russian
    Default : Да
    Forced : Нет
    Аудио #1
    Идентификатор : 2
    Формат : DTS
    Формат/Информация : Digital Theater Systems
    Идентификатор кодека : A_DTS
    Продолжительность : 1 ч. 44 м.
    Вид битрейта : Постоянный
    Битрейт : 1509 Кбит/сек
    Каналы : 6 каналов
    Расположение каналов : Front: L C R, Side: L R, LFE
    Частота : 48, 0 КГц
    Частота кадров : 93, 750 кадра/сек (512 SPF)
    Битовая глубина : 24 бит
    Метод сжатия : С потерями
    Размер потока : 1, 10 Гбайт (10%)
    Язык : Russian
    Default : Да
    Forced : Нет
    Аудио #2
    Идентификатор : 3
    Формат : AC-3
    Формат/Информация : Audio Coding 3
    Идентификатор кодека : A_AC3
    Продолжительность : 1 ч. 44 м.
    Вид битрейта : Постоянный
    Битрейт : 640 Кбит/сек
    Каналы : 6 каналов
    Расположение каналов : Front: L C R, Side: L R, LFE
    Частота : 48, 0 КГц
    Частота кадров : 31, 250 кадров/сек (1536 SPF)
    Битовая глубина : 16 бит
    Метод сжатия : С потерями
    Размер потока : 479 Мбайт (4%)
    Язык : Russian
    ServiceKind/String : Complete Main
    Default : Нет
    Forced : Нет
    Меню
    00: 00: 00.000 : ru: Chapter 1
    00: 10: 40.556 : ru: Chapter 2
    00: 18: 16.386 : ru: Chapter 3
    00: 29: 00.822 : ru: Chapter 4
    00: 37: 23.491 : ru: Chapter 5
    00: 45: 32.688 : ru: Chapter 6
    00: 53: 55.690 : ru: Chapter 7
    01: 03: 59.335 : ru: Chapter 8
    01: 11: 56.645 : ru: Chapter 9
    01: 22: 56.972 : ru: Chapter 10
    01: 31: 06.127 : ru: Chapter 11
    01: 38: 28.110 : ru: Chapter 12
    01: 44: 32.140 : ru: Chapter 13

    Скриншоты для ознакомления



    Все одноименные релизы в Клубе
    Время раздачи: (до появления первых 3-5 скачавших)


    Онлайн видео Скиф (2017) BDRip [H.264



    Скиф (2017) BDRip [H.264/1080p]
    Рейтинг →
     (голосов: 1, оценка 4/5, голосовать можно 1 раз )

    Другие торренты по теме:

  • Скиф (2017) BDRip [H.264 / 720p-LQ]
  • Скиф (2018) BDRip [H.265 / 1080p-LQ] [10-bit]
  • Скиф (2018) BDRip [H.264]


    • Комментарии (0):

      Информация

      Информация

        Посетители, находящиеся в группе Гости, не могут оставлять комментарии в данной новости.

        ↓ Меню




        ↓ Опрос

        Вы добавили сайт в закладки?
        Да
        Нет


        Top 10 за месяц (Фильмы)