.
Авторизация | Регистрация
Хочешь лучшие торренты? Добавь свой email!
Добавить

Торрент скачать бесплатно

  • support: webmaster@btracker.org
» » Альпийский патруль / Medicopter 117 - Jedes Leben zahlt (1998,1999,2000) DVDRip (Сезон 1, серий 8 из 8 Сезон 2, серий 13 из 13 Сезон 3, серии 1-11 из 13) торрент скачать бесплатно


    Альпийский патруль / Medicopter 117 - Jedes Leben zahlt (1998,1999,2000) DVDRip (Сезон 1, серий 8 из 8 Сезон 2, серий 13 из 13 Сезон 3, серии 1-11 из 13) торрент скачать бесплатно

    Опубликовал: Админ | Дата: 31-05-2018, 05:00 | .torrent скачали: 1

    Альпийский патруль / Medicopter 117 - Jedes Leben zahlt (1998,1999,2000) DVDRip (Сезон 1, серий 8 из 8 Сезон 2, серий 13 из 13 Сезон 3, серии 1-11 из 13)Производство: Германия, Австрия, MR Filmproduktion, RTL, Österreichischer Rundfunk (ORF)
    Жанр: Драма
    Режиссер: Томас Никель, Вольфганг Дикманн, Петер Вельц

    Актеры
    Серж Фальк, Ханно Пёшль, Сабина Пецль, Росвита Мейер, Манфред Штюкльшвайгер, Урс Ремонд, Райнер Гренковитц, Юлия Ценциг, Вольфганг Креве, Ганс Хеллер

    Описание

    У летчиков и медиков с санитарного вертолета 117 дел как всегда по горло. Вот цистерна с горючим столкнулась с легковушкой… Вот фельдшер-новичок неумело спускается к роженице, на палубу горящей шлюпки. Его канат застревает в мачте, а в таких случаях, по инструкции, летчик перерезает канат… Что они за люди, эти спасатели в Альпах? О, тут каждый — личность, и их обаятельный белый пес — не исключение…
    Главными героями являются члены двух бригад медиков-спасателей. Зрителям предстоит знакомство с врачом скорой помощи Михаэлем Людвицем, фельдшером Петером Бергером и пилотом Томасом Вехтером, входящими в состав одной из бригад. Вторая команда - это врач скорой, Габриэла Коллманн, летчица Бигги Шверин и санитар Ральф Шталер. Помогает спасателям в их не легкой работе очаровательный пес Гонзо, чей острый нюх и чуткий слух не раз спасал жизни людей, попавших в беду. На земле экипажи обслуживает Макс, симпатичный механик вертолетной площадки.
    Главный принцип героев сериала прост и лаконичен: Ценна каждая жизнь. Бригады спасателей, сменяя друг друга, снова и снова отправляются на вызов, и каждый день, каждый вылет становится очередным испытанием техники и людей. Рискуя собственными жизнями, они спешат на помощь тем, кто попал в беду.

    Возраст: 16+ (зрителям, достигшим 16 лет)
    Продолжительность: ~00: 45: 00 серия
    Качество видео: DVDRip
    Перевод: Профессиональный дубляж (РЕН ТВ)
    Субтитры: отсутствуют
    Видео: Xvid, 560x416, ~2000 Kbps
    Аудио#1: MP3, 2 ch, 192 Kbps | Русский дубляж (РенТВ)
    Аудио#2: MP3, 2 ch, 224 Kbps | Немецкий

    Общее
    Полное имя : D: ARXIF Windows Vista, XP, XP 2FILJMIMedicopter 117Medicopter 117Medicopter 117Staffel 11x00 - Der Kronzeuge (Убрать свидетеля).avi
    Формат : AVI
    Формат/Информация : Audio Video Interleave
    Размер файла : 1, 49 Гбайт
    Продолжительность : 1 ч. 31 м.
    Общий поток : 2334 Кбит/сек
    Название фильма : Альпийский патруль - ценится каждая жизнь. Сезон 1/Medicopter 117 - Jedes Leben Zahlt. Staffel 1 (1998)
    Программа кодирования : VirtualDubMod 1.5.10.2 (build 2540/release)
    Библиотека кодирования : VirtualDubMod build 2540/release
    Видео
    Идентификатор : 0
    Формат : MPEG-4 Visual
    Профиль формата : Advanced Simple@L5
    Настройки формата : BVOP1/Custom Matrix
    Параметр BVOP формата : 1
    Параметр QPel формата : Нет
    Параметр GMC формата : Без точки перехода
    Параметр матрицы формата : Выборочная
    Идентификатор кодека : XVID
    Идентификатор кодека/Подсказка : XviD
    Продолжительность : 1 ч. 31 м.
    Битрейт : 1910 Кбит/сек
    Ширина : 560 пикселей
    Высота : 416 пикселей
    Соотношение сторон : 4: 3
    Частота кадров : 25, 000 кадров/сек
    Цветовое пространство : YUV
    Субдискретизация насыщенности : 4: 2: 0
    Битовая глубина : 8 бит
    Тип развёртки : Прогрессивная
    Метод сжатия : С потерями
    Бит/(Пиксели*Кадры) : 0.328
    Размер потока : 1, 22 Гбайт (82%)
    Библиотека кодирования : XviD 1.1.2 (UTC 2006-11-01)
    Аудио #1
    Идентификатор : 1
    Формат : AC-3
    Формат/Информация : Audio Coding 3
    Идентификатор кодека : 2000
    Продолжительность : 1 ч. 31 м.
    Вид битрейта : Постоянный
    Битрейт : 192 Кбит/сек
    Каналы : 2 канала
    Расположение каналов : Front: L R
    Частота : 48, 0 КГц
    Частота кадров : 31, 250 кадров/сек (1536 SPF)
    Битовая глубина : 16 бит
    Метод сжатия : С потерями
    Размер потока : 126 Мбайт (8%)
    Выравнивание : Соединение по промежуткам
    Продолжительность промежутка : 160 мс. (4, 00 видеокадра)
    Время предзагрузки промежутка : 640 мс.
    Заголовок : Профессиональный (полное дублирование) РенТВ
    ServiceKind/String : Complete Main
    Аудио #2
    Идентификатор : 2
    Формат : AC-3
    Формат/Информация : Audio Coding 3
    Идентификатор кодека : 2000
    Продолжительность : 1 ч. 31 м.
    Вид битрейта : Постоянный
    Битрейт : 224 Кбит/сек
    Каналы : 2 канала
    Расположение каналов : Front: L R
    Частота : 48, 0 КГц
    Частота кадров : 31, 250 кадров/сек (1536 SPF)
    Битовая глубина : 16 бит
    Метод сжатия : С потерями
    Размер потока : 146 Мбайт (10%)
    Выравнивание : Разделение по промежуткам
    Продолжительность промежутка : 137 мс. (3, 43 видеокадра)
    Время предзагрузки промежутка : 548 мс.
    Заголовок : Немецкий
    ServiceKind/String : Complete Main
    Общее
    Полное имя : D: ARXIF Windows Vista, XP, XP 2FILJMIMedicopter 117Medicopter 117Medicopter 117Staffel 11x01 - Tödliche Dosis (Смертельная доза).avi
    Формат : AVI
    Формат/Информация : Audio Video Interleave
    Размер файла : 762 Мбайт
    Продолжительность : 45 м. 5 с.
    Общий поток : 2364 Кбит/сек
    Название фильма : Альпийский патруль - ценится каждая жизнь. Сезон 1/Medicopter 117 - Jedes Leben Zahlt. Staffel 1 (1998)
    Программа кодирования : VirtualDubMod 1.5.10.2 (build 2540/release)
    Библиотека кодирования : VirtualDubMod build 2540/release
    Видео
    Идентификатор : 0
    Формат : MPEG-4 Visual
    Профиль формата : Advanced Simple@L5
    Настройки формата : BVOP1/Custom Matrix
    Параметр BVOP формата : 1
    Параметр QPel формата : Нет
    Параметр GMC формата : Без точки перехода
    Параметр матрицы формата : Выборочная
    Идентификатор кодека : XVID
    Идентификатор кодека/Подсказка : XviD
    Продолжительность : 45 м. 5 с.
    Битрейт : 1940 Кбит/сек
    Ширина : 560 пикселей
    Высота : 416 пикселей
    Соотношение сторон : 4: 3
    Частота кадров : 25, 000 кадров/сек
    Цветовое пространство : YUV
    Субдискретизация насыщенности : 4: 2: 0
    Битовая глубина : 8 бит
    Тип развёртки : Прогрессивная
    Метод сжатия : С потерями
    Бит/(Пиксели*Кадры) : 0.333
    Размер потока : 626 Мбайт (82%)
    Библиотека кодирования : XviD 1.1.2 (UTC 2006-11-01)
    Аудио #1
    Идентификатор : 1
    Формат : AC-3
    Формат/Информация : Audio Coding 3
    Идентификатор кодека : 2000
    Продолжительность : 45 м. 5 с.
    Вид битрейта : Постоянный
    Битрейт : 192 Кбит/сек
    Каналы : 2 канала
    Расположение каналов : Front: L R
    Частота : 48, 0 КГц
    Частота кадров : 31, 250 кадров/сек (1536 SPF)
    Битовая глубина : 16 бит
    Метод сжатия : С потерями
    Размер потока : 61, 9 Мбайт (8%)
    Выравнивание : Соединение по промежуткам
    Продолжительность промежутка : 160 мс. (4, 00 видеокадра)
    Время предзагрузки промежутка : 640 мс.
    Заголовок : Профессиональный (полное дублирование) РенТВ
    ServiceKind/String : Complete Main
    Аудио #2
    Идентификатор : 2
    Формат : AC-3
    Формат/Информация : Audio Coding 3
    Идентификатор кодека : 2000
    Продолжительность : 45 м. 5 с.
    Вид битрейта : Постоянный
    Битрейт : 224 Кбит/сек
    Каналы : 2 канала
    Расположение каналов : Front: L R
    Частота : 48, 0 КГц
    Частота кадров : 31, 250 кадров/сек (1536 SPF)
    Битовая глубина : 16 бит
    Метод сжатия : С потерями
    Размер потока : 72, 2 Мбайт (9%)
    Выравнивание : Разделение по промежуткам
    Продолжительность промежутка : 137 мс. (3, 43 видеокадра)
    Время предзагрузки промежутка : 548 мс.
    Заголовок : Немецкий
    ServiceKind/String : Complete Main
    Общее
    Полное имя : D: ARXIF Windows Vista, XP, XP 2FILJMIMedicopter 117Medicopter 117Medicopter 117Staffel 11x02 - Die Geiselnahme (Случай с заложниками) .avi
    Формат : AVI
    Формат/Информация : Audio Video Interleave
    Размер файла : 764 Мбайт
    Продолжительность : 45 м. 59 с.
    Общий поток : 2321 Кбит/сек
    Название фильма : Альпийский патруль - ценится каждая жизнь. Сезон 1/Medicopter 117 - Jedes Leben Zahlt. Staffel 1 (1998)
    Программа кодирования : VirtualDubMod 1.5.10.2 (build 2540/release)
    Библиотека кодирования : VirtualDubMod build 2540/release
    Видео
    Идентификатор : 0
    Формат : MPEG-4 Visual
    Профиль формата : Advanced Simple@L5
    Настройки формата : BVOP1/Custom Matrix
    Параметр BVOP формата : 1
    Параметр QPel формата : Нет
    Параметр GMC формата : Без точки перехода
    Параметр матрицы формата : Выборочная
    Идентификатор кодека : XVID
    Идентификатор кодека/Подсказка : XviD
    Продолжительность : 45 м. 59 с.
    Битрейт : 1898 Кбит/сек
    Ширина : 560 пикселей
    Высота : 416 пикселей
    Соотношение сторон : 4: 3
    Частота кадров : 25, 000 кадров/сек
    Цветовое пространство : YUV
    Субдискретизация насыщенности : 4: 2: 0
    Битовая глубина : 8 бит
    Тип развёртки : Прогрессивная
    Метод сжатия : С потерями
    Бит/(Пиксели*Кадры) : 0.326
    Размер потока : 624 Мбайт (82%)
    Библиотека кодирования : XviD 1.1.2 (UTC 2006-11-01)
    Аудио #1
    Идентификатор : 1
    Формат : AC-3
    Формат/Информация : Audio Coding 3
    Идентификатор кодека : 2000
    Продолжительность : 45 м. 59 с.
    Вид битрейта : Постоянный
    Битрейт : 192 Кбит/сек
    Каналы : 2 канала
    Расположение каналов : Front: L R
    Частота : 48, 0 КГц
    Частота кадров : 31, 250 кадров/сек (1536 SPF)
    Битовая глубина : 16 бит
    Метод сжатия : С потерями
    Размер потока : 63, 2 Мбайт (8%)
    Выравнивание : Соединение по промежуткам
    Продолжительность промежутка : 160 мс. (4, 00 видеокадра)
    Время предзагрузки промежутка : 640 мс.
    Заголовок : Профессиональный (полное дублирование) РенТВ
    ServiceKind/String : Complete Main
    Аудио #2
    Идентификатор : 2
    Формат : AC-3
    Формат/Информация : Audio Coding 3
    Идентификатор кодека : 2000
    Продолжительность : 45 м. 59 с.
    Вид битрейта : Постоянный
    Битрейт : 224 Кбит/сек
    Каналы : 2 канала
    Расположение каналов : Front: L R
    Частота : 48, 0 КГц
    Частота кадров : 31, 250 кадров/сек (1536 SPF)
    Битовая глубина : 16 бит
    Метод сжатия : С потерями
    Размер потока : 73, 7 Мбайт (10%)
    Выравнивание : Разделение по промежуткам
    Продолжительность промежутка : 137 мс. (3, 43 видеокадра)
    Время предзагрузки промежутка : 548 мс.
    Заголовок : Немецкий
    ServiceKind/String : Complete Main
    Общее
    Полное имя : D: ARXIF Windows Vista, XP, XP 2FILJMIMedicopter 117Medicopter 117Medicopter 117Staffel 11x03 - Kurzschluss (Короткое замыкание) .avi
    Формат : AVI
    Формат/Информация : Audio Video Interleave
    Размер файла : 763 Мбайт
    Продолжительность : 45 м. 13 с.
    Общий поток : 2357 Кбит/сек
    Название фильма : Альпийский патруль - ценится каждая жизнь. Сезон 1/Medicopter 117 - Jedes Leben Zahlt. Staffel 1 (1998)
    Программа кодирования : VirtualDubMod 1.5.10.2 (build 2540/release)
    Библиотека кодирования : VirtualDubMod build 2540/release
    Видео
    Идентификатор : 0
    Формат : MPEG-4 Visual
    Профиль формата : Advanced Simple@L5
    Настройки формата : BVOP1/Custom Matrix
    Параметр BVOP формата : 1
    Параметр QPel формата : Нет
    Параметр GMC формата : Без точки перехода
    Параметр матрицы формата : Выборочная
    Идентификатор кодека : XVID
    Идентификатор кодека/Подсказка : XviD
    Продолжительность : 45 м. 13 с.
    Битрейт : 1933 Кбит/сек
    Ширина : 560 пикселей
    Высота : 416 пикселей
    Соотношение сторон : 4: 3
    Частота кадров : 25, 000 кадров/сек
    Цветовое пространство : YUV
    Субдискретизация насыщенности : 4: 2: 0
    Битовая глубина : 8 бит
    Тип развёртки : Прогрессивная
    Метод сжатия : С потерями
    Бит/(Пиксели*Кадры) : 0.332
    Размер потока : 626 Мбайт (82%)
    Библиотека кодирования : XviD 1.1.2 (UTC 2006-11-01)
    Аудио #1
    Идентификатор : 1
    Формат : AC-3
    Формат/Информация : Audio Coding 3
    Идентификатор кодека : 2000
    Продолжительность : 45 м. 13 с.
    Вид битрейта : Постоянный
    Битрейт : 192 Кбит/сек
    Каналы : 2 канала
    Расположение каналов : Front: L R
    Частота : 48, 0 КГц
    Частота кадров : 31, 250 кадров/сек (1536 SPF)
    Битовая глубина : 16 бит
    Метод сжатия : С потерями
    Размер потока : 62, 1 Мбайт (8%)
    Выравнивание : Соединение по промежуткам
    Продолжительность промежутка : 160 мс. (4, 00 видеокадра)
    Время предзагрузки промежутка : 640 мс.
    Заголовок : Профессиональный (полное дублирование) РенТВ
    ServiceKind/String : Complete Main
    Аудио #2
    Идентификатор : 2
    Формат : AC-3
    Формат/Информация : Audio Coding 3
    Идентификатор кодека : 2000
    Продолжительность : 45 м. 13 с.
    Вид битрейта : Постоянный
    Битрейт : 224 Кбит/сек
    Каналы : 2 канала
    Расположение каналов : Front: L R
    Частота : 48, 0 КГц
    Частота кадров : 31, 250 кадров/сек (1536 SPF)
    Битовая глубина : 16 бит
    Метод сжатия : С потерями
    Размер потока : 72, 5 Мбайт (10%)
    Выравнивание : Разделение по промежуткам
    Продолжительность промежутка : 137 мс. (3, 43 видеокадра)
    Время предзагрузки промежутка : 548 мс.
    Заголовок : Немецкий
    ServiceKind/String : Complete Main
    Общее
    Полное имя : D: ARXIF Windows Vista, XP, XP 2FILJMIMedicopter 117Medicopter 117Medicopter 117Staffel 11x04 - Flug in die Hölle (Болтунья) .avi
    Формат : AVI
    Формат/Информация : Audio Video Interleave
    Размер файла : 763 Мбайт
    Продолжительность : 45 м. 50 с.
    Общий поток : 2328 Кбит/сек
    Название фильма : Альпийский патруль - ценится каждая жизнь. Сезон 1/Medicopter 117 - Jedes Leben Zahlt. Staffel 1 (1998)
    Программа кодирования : VirtualDubMod 1.5.10.2 (build 2540/release)
    Библиотека кодирования : VirtualDubMod build 2540/release
    Видео
    Идентификатор : 0
    Формат : MPEG-4 Visual
    Профиль формата : Advanced Simple@L5
    Настройки формата : BVOP1/Custom Matrix
    Параметр BVOP формата : 1
    Параметр QPel формата : Нет
    Параметр GMC формата : Без точки перехода
    Параметр матрицы формата : Выборочная
    Идентификатор кодека : XVID
    Идентификатор кодека/Подсказка : XviD
    Продолжительность : 45 м. 50 с.
    Битрейт : 1905 Кбит/сек
    Ширина : 560 пикселей
    Высота : 416 пикселей
    Соотношение сторон : 4: 3
    Частота кадров : 25, 000 кадров/сек
    Цветовое пространство : YUV
    Субдискретизация насыщенности : 4: 2: 0
    Битовая глубина : 8 бит
    Тип развёртки : Прогрессивная
    Метод сжатия : С потерями
    Бит/(Пиксели*Кадры) : 0.327
    Размер потока : 624 Мбайт (82%)
    Библиотека кодирования : XviD 1.1.2 (UTC 2006-11-01)
    Аудио #1
    Идентификатор : 1
    Формат : AC-3
    Формат/Информация : Audio Coding 3
    Идентификатор кодека : 2000
    Продолжительность : 45 м. 50 с.
    Вид битрейта : Постоянный
    Битрейт : 192 Кбит/сек
    Каналы : 2 канала
    Расположение каналов : Front: L R
    Частота : 48, 0 КГц
    Частота кадров : 31, 250 кадров/сек (1536 SPF)
    Битовая глубина : 16 бит
    Метод сжатия : С потерями
    Размер потока : 63, 0 Мбайт (8%)
    Выравнивание : Соединение по промежуткам
    Продолжительность промежутка : 160 мс. (4, 00 видеокадра)
    Время предзагрузки промежутка : 640 мс.
    Заголовок : Профессиональный (полное дублирование) РенТВ
    ServiceKind/String : Complete Main
    Аудио #2
    Идентификатор : 2
    Формат : AC-3
    Формат/Информация : Audio Coding 3
    Идентификатор кодека : 2000
    Продолжительность : 45 м. 50 с.
    Вид битрейта : Постоянный
    Битрейт : 224 Кбит/сек
    Каналы : 2 канала
    Расположение каналов : Front: L R
    Частота : 48, 0 КГц
    Частота кадров : 31, 250 кадров/сек (1536 SPF)
    Битовая глубина : 16 бит
    Метод сжатия : С потерями
    Размер потока : 73, 4 Мбайт (10%)
    Выравнивание : Разделение по промежуткам
    Продолжительность промежутка : 137 мс. (3, 43 видеокадра)
    Время предзагрузки промежутка : 548 мс.
    Заголовок : Немецкий
    ServiceKind/String : Complete Main
    Общее
    Полное имя : D: ARXIF Windows Vista, XP, XP 2FILJMIMedicopter 117Medicopter 117Medicopter 117Staffel 11x05 - Inferno ohne Ausweg (Кольцо огня) .avi
    Формат : AVI
    Формат/Информация : Audio Video Interleave
    Размер файла : 763 Мбайт
    Продолжительность : 45 м. 27 с.
    Общий поток : 2346 Кбит/сек
    Название фильма : Альпийский патруль - ценится каждая жизнь. Сезон 1/Medicopter 117 - Jedes Leben Zahlt. Staffel 1 (1998)
    Программа кодирования : VirtualDubMod 1.5.10.2 (build 2540/release)
    Библиотека кодирования : VirtualDubMod build 2540/release
    Видео
    Идентификатор : 0
    Формат : MPEG-4 Visual
    Профиль формата : Advanced Simple@L5
    Настройки формата : BVOP1/Custom Matrix
    Параметр BVOP формата : 1
    Параметр QPel формата : Нет
    Параметр GMC формата : Без точки перехода
    Параметр матрицы формата : Выборочная
    Идентификатор кодека : XVID
    Идентификатор кодека/Подсказка : XviD
    Продолжительность : 45 м. 27 с.
    Битрейт : 1923 Кбит/сек
    Ширина : 560 пикселей
    Высота : 416 пикселей
    Соотношение сторон : 4: 3
    Частота кадров : 25, 000 кадров/сек
    Цветовое пространство : YUV
    Субдискретизация насыщенности : 4: 2: 0
    Битовая глубина : 8 бит
    Тип развёртки : Прогрессивная
    Метод сжатия : С потерями
    Бит/(Пиксели*Кадры) : 0.330
    Размер потока : 625 Мбайт (82%)
    Библиотека кодирования : XviD 1.1.2 (UTC 2006-11-01)
    Аудио #1
    Идентификатор : 1
    Формат : AC-3
    Формат/Информация : Audio Coding 3
    Идентификатор кодека : 2000
    Продолжительность : 45 м. 27 с.
    Вид битрейта : Постоянный
    Битрейт : 192 Кбит/сек
    Каналы : 2 канала
    Расположение каналов : Front: L R
    Частота : 48, 0 КГц
    Частота кадров : 31, 250 кадров/сек (1536 SPF)
    Битовая глубина : 16 бит
    Метод сжатия : С потерями
    Размер потока : 62, 4 Мбайт (8%)
    Выравнивание : Соединение по промежуткам
    Продолжительность промежутка : 160 мс. (4, 00 видеокадра)
    Время предзагрузки промежутка : 640 мс.
    Заголовок : Профессиональный (полное дублирование) РенТВ
    ServiceKind/String : Complete Main
    Аудио #2
    Идентификатор : 2
    Формат : AC-3
    Формат/Информация : Audio Coding 3
    Идентификатор кодека : 2000
    Продолжительность : 45 м. 27 с.
    Вид битрейта : Постоянный
    Битрейт : 224 Кбит/сек
    Каналы : 2 канала
    Расположение каналов : Front: L R
    Частота : 48, 0 КГц
    Частота кадров : 31, 250 кадров/сек (1536 SPF)
    Битовая глубина : 16 бит
    Метод сжатия : С потерями
    Размер потока : 72, 8 Мбайт (10%)
    Выравнивание : Разделение по промежуткам
    Продолжительность промежутка : 137 мс. (3, 43 видеокадра)
    Время предзагрузки промежутка : 548 мс.
    Заголовок : Немецкий
    ServiceKind/String : Complete Main
    Общее
    Полное имя : D: ARXIF Windows Vista, XP, XP 2FILJMIMedicopter 117Medicopter 117Medicopter 117Staffel 11x06 - Blinde Wut (Слепая ярость) .avi
    Формат : AVI
    Формат/Информация : Audio Video Interleave
    Размер файла : 764 Мбайт
    Продолжительность : 46 м. 15 с.
    Общий поток : 2309 Кбит/сек
    Название фильма : Альпийский патруль - ценится каждая жизнь. Сезон 1/Medicopter 117 - Jedes Leben Zahlt. Staffel 1 (1998)
    Программа кодирования : VirtualDubMod 1.5.10.2 (build 2540/release)
    Библиотека кодирования : VirtualDubMod build 2540/release
    Видео
    Идентификатор : 0
    Формат : MPEG-4 Visual
    Профиль формата : Advanced Simple@L5
    Настройки формата : BVOP1/Custom Matrix
    Параметр BVOP формата : 1
    Параметр QPel формата : Нет
    Параметр GMC формата : Без точки перехода
    Параметр матрицы формата : Выборочная
    Идентификатор кодека : XVID
    Идентификатор кодека/Подсказка : XviD
    Продолжительность : 46 м. 15 с.
    Битрейт : 1886 Кбит/сек
    Ширина : 560 пикселей
    Высота : 416 пикселей
    Соотношение сторон : 4: 3
    Частота кадров : 25, 000 кадров/сек
    Цветовое пространство : YUV
    Субдискретизация насыщенности : 4: 2: 0
    Битовая глубина : 8 бит
    Тип развёртки : Прогрессивная
    Метод сжатия : С потерями
    Бит/(Пиксели*Кадры) : 0.324
    Размер потока : 624 Мбайт (82%)
    Библиотека кодирования : XviD 1.1.2 (UTC 2006-11-01)
    Аудио #1
    Идентификатор : 1
    Формат : AC-3
    Формат/Информация : Audio Coding 3
    Идентификатор кодека : 2000
    Продолжительность : 46 м. 15 с.
    Вид битрейта : Постоянный
    Битрейт : 192 Кбит/сек
    Каналы : 2 канала
    Расположение каналов : Front: L R
    Частота : 48, 0 КГц
    Частота кадров : 31, 250 кадров/сек (1536 SPF)
    Битовая глубина : 16 бит
    Метод сжатия : С потерями
    Размер потока : 63, 5 Мбайт (8%)
    Выравнивание : Соединение по промежуткам
    Продолжительность промежутка : 160 мс. (4, 00 видеокадра)
    Время предзагрузки промежутка : 640 мс.
    Заголовок : Профессиональный (полное дублирование) РенТВ
    ServiceKind/String : Complete Main
    Аудио #2
    Идентификатор : 2
    Формат : AC-3
    Формат/Информация : Audio Coding 3
    Идентификатор кодека : 2000
    Продолжительность : 46 м. 15 с.
    Вид битрейта : Постоянный
    Битрейт : 224 Кбит/сек
    Каналы : 2 канала
    Расположение каналов : Front: L R
    Частота : 48, 0 КГц
    Частота кадров : 31, 250 кадров/сек (1536 SPF)
    Битовая глубина : 16 бит
    Метод сжатия : С потерями
    Размер потока : 74, 1 Мбайт (10%)
    Выравнивание : Разделение по промежуткам
    Продолжительность промежутка : 137 мс. (3, 43 видеокадра)
    Время предзагрузки промежутка : 548 мс.
    Заголовок : Немецкий
    ServiceKind/String : Complete Main
    Общее
    Полное имя : D: ARXIF Windows Vista, XP, XP 2FILJMIMedicopter 117Medicopter 117Medicopter 117Staffel 11x07 - Gift in den Adern (Отравленный полёт) .avi
    Формат : AVI
    Формат/Информация : Audio Video Interleave
    Размер файла : 763 Мбайт
    Продолжительность : 45 м. 54 с.
    Общий поток : 2325 Кбит/сек
    Название фильма : Альпийский патруль - ценится каждая жизнь. Сезон 1/Medicopter 117 - Jedes Leben Zahlt. Staffel 1 (1998)
    Программа кодирования : VirtualDubMod 1.5.10.2 (build 2540/release)
    Библиотека кодирования : VirtualDubMod build 2540/release
    Видео
    Идентификатор : 0
    Формат : MPEG-4 Visual
    Профиль формата : Advanced Simple@L5
    Настройки формата : BVOP1/Custom Matrix
    Параметр BVOP формата : 1
    Параметр QPel формата : Нет
    Параметр GMC формата : Без точки перехода
    Параметр матрицы формата : Выборочная
    Идентификатор кодека : XVID
    Идентификатор кодека/Подсказка : XviD
    Продолжительность : 45 м. 54 с.
    Битрейт : 1902 Кбит/сек
    Ширина : 560 пикселей
    Высота : 416 пикселей
    Соотношение сторон : 4: 3
    Частота кадров : 25, 000 кадров/сек
    Цветовое пространство : YUV
    Субдискретизация насыщенности : 4: 2: 0
    Битовая глубина : 8 бит
    Тип развёртки : Прогрессивная
    Метод сжатия : С потерями
    Бит/(Пиксели*Кадры) : 0.327
    Размер потока : 624 Мбайт (82%)
    Библиотека кодирования : XviD 1.1.2 (UTC 2006-11-01)
    Аудио #1
    Идентификатор : 1
    Формат : AC-3
    Формат/Информация : Audio Coding 3
    Идентификатор кодека : 2000
    Продолжительность : 45 м. 54 с.
    Вид битрейта : Постоянный
    Битрейт : 192 Кбит/сек
    Каналы : 2 канала
    Расположение каналов : Front: L R
    Частота : 48, 0 КГц
    Частота кадров : 31, 250 кадров/сек (1536 SPF)
    Битовая глубина : 16 бит
    Метод сжатия : С потерями
    Размер потока : 63, 0 Мбайт (8%)
    Выравнивание : Соединение по промежуткам
    Продолжительность промежутка : 160 мс. (4, 00 видеокадра)
    Время предзагрузки промежутка : 640 мс.
    Заголовок : Профессиональный (полное дублирование) РенТВ
    ServiceKind/String : Complete Main
    Аудио #2
    Идентификатор : 2
    Формат : AC-3
    Формат/Информация : Audio Coding 3
    Идентификатор кодека : 2000
    Продолжительность : 45 м. 54 с.
    Вид битрейта : Постоянный
    Битрейт : 224 Кбит/сек
    Каналы : 2 канала
    Расположение каналов : Front: L R
    Частота : 48, 0 КГц
    Частота кадров : 31, 250 кадров/сек (1536 SPF)
    Битовая глубина : 16 бит
    Метод сжатия : С потерями
    Размер потока : 73, 5 Мбайт (10%)
    Выравнивание : Разделение по промежуткам
    Продолжительность промежутка : 137 мс. (3, 43 видеокадра)
    Время предзагрузки промежутка : 548 мс.
    Заголовок : Немецкий
    ServiceKind/String : Complete Main
    Общее
    Полное имя : D: ARXIF Windows Vista, XP, XP 2FILJMIMedicopter 117Medicopter 117Medicopter 117Staffel 11x08 - Der Absturz (Тревога в горах).avi
    Формат : AVI
    Формат/Информация : Audio Video Interleave
    Размер файла : 763 Мбайт
    Продолжительность : 45 м. 40 с.
    Общий поток : 2336 Кбит/сек
    Название фильма : Альпийский патруль - ценится каждая жизнь. Сезон 1/Medicopter 117 - Jedes Leben Zahlt. Staffel 1 (1998)
    Программа кодирования : VirtualDubMod 1.5.10.2 (build 2540/release)
    Библиотека кодирования : VirtualDubMod build 2540/release
    Видео
    Идентификатор : 0
    Формат : MPEG-4 Visual
    Профиль формата : Advanced Simple@L5
    Настройки формата : BVOP1/Custom Matrix
    Параметр BVOP формата : 1
    Параметр QPel формата : Нет
    Параметр GMC формата : Без точки перехода
    Параметр матрицы формата : Выборочная
    Идентификатор кодека : XVID
    Идентификатор кодека/Подсказка : XviD
    Продолжительность : 45 м. 40 с.
    Битрейт : 1912 Кбит/сек
    Ширина : 560 пикселей
    Высота : 416 пикселей
    Соотношение сторон : 4: 3
    Частота кадров : 25, 000 кадров/сек
    Цветовое пространство : YUV
    Субдискретизация насыщенности : 4: 2: 0
    Битовая глубина : 8 бит
    Тип развёртки : Прогрессивная
    Метод сжатия : С потерями
    Бит/(Пиксели*Кадры) : 0.328
    Размер потока : 625 Мбайт (82%)
    Библиотека кодирования : XviD 1.1.2 (UTC 2006-11-01)
    Аудио #1
    Идентификатор : 1
    Формат : AC-3
    Формат/Информация : Audio Coding 3
    Идентификатор кодека : 2000
    Продолжительность : 45 м. 40 с.
    Вид битрейта : Постоянный
    Битрейт : 192 Кбит/сек
    Каналы : 2 канала
    Расположение каналов : Front: L R
    Частота : 48, 0 КГц
    Частота кадров : 31, 250 кадров/сек (1536 SPF)
    Битовая глубина : 16 бит
    Метод сжатия : С потерями
    Размер потока : 62, 7 Мбайт (8%)
    Выравнивание : Соединение по промежуткам
    Продолжительность промежутка : 160 мс. (4, 00 видеокадра)
    Время предзагрузки промежутка : 640 мс.
    Заголовок : Профессиональный (полное дублирование) РенТВ
    ServiceKind/String : Complete Main
    Аудио #2
    Идентификатор : 2
    Формат : AC-3
    Формат/Информация : Audio Coding 3
    Идентификатор кодека : 2000
    Продолжительность : 45 м. 40 с.
    Вид битрейта : Постоянный
    Битрейт : 224 Кбит/сек
    Каналы : 2 канала
    Расположение каналов : Front: L R
    Частота : 48, 0 КГц
    Частота кадров : 31, 250 кадров/сек (1536 SPF)
    Битовая глубина : 16 бит
    Метод сжатия : С потерями
    Размер потока : 73, 2 Мбайт (10%)
    Выравнивание : Разделение по промежуткам
    Продолжительность промежутка : 137 мс. (3, 43 видеокадра)
    Время предзагрузки промежутка : 548 мс.
    Заголовок : Немецкий
    ServiceKind/String : Complete Main

    Скриншоты для ознакомления



    Все одноименные релизы в Клубе
    Время раздачи: 24/7 (круглосуточно) (до появления первых 3-5 скачавших)


    Онлайн видео Альпийский патруль



    Альпийский патруль/Medicopter 117 - Jedes Leben zahlt (1998,1999,2000) DVDRip (Сезон 1, серий 8 из 8 Сезон 2, серий 13 из 13 Сезон 3, серии 1-11 из 13)
    Рейтинг →
     (голосов: 1, оценка 5/5, голосовать можно 1 раз )

    Другие торренты по теме:

  • Alpine Ski Racing 2007 / Горные лыжи: Альпийский сезон 2007 (2006) [Ru] (1.0) Repack CoD- MW2


    • Комментарии (0):

      Информация

      Информация

        Посетители, находящиеся в группе Гости, не могут оставлять комментарии в данной новости.

        ↓ Меню




        ↓ Опрос

        Вы добавили сайт в закладки?
        Да
        Нет


        Top 10 за месяц (Фильмы)