.
Авторизация | Регистрация
Хочешь лучшие торренты? Добавь свой email!
Добавить

Торрент скачать бесплатно

  • support: webmaster@btracker.org
» » Заговор (1971) SATRip (3 серии из 3-х) торрент скачать бесплатно


    Заговор (1971) SATRip (3 серии из 3-х) торрент скачать бесплатно

    Опубликовал: Админ | Дата: 31-05-2018, 05:00 | .torrent скачали: 1

    Заговор (1971) SATRip (3 серии из 3-х)Производство: СССР, Центральное телевидение
    Жанр: Детектив, Драма
    Режиссер: Александр Рохлин, Анатолий Шайкевич

    Актеры
    Павел Массальский, Валентин Гафт, Григорий Аннапольский, Владимир Муравьев, Ирина Гошева, Галикс Колчицкий, Юрий Пузырев, Вячеслав Степанов, Ирина Мирошниченко, Маргарита Юрьева, Лев Иванов, Юрий Леонидов, Сергей Сафонов, Владимир Привальцев, Константин Градополов

    Описание

    По мотивам романа американских журналистов Флетчера Нибела и Чарльза Бейли Семь дней в мае.О вымышленных событиях, которые могли бы произойти в 1974 году в США. Только что заключен советско-американский договор о ядерном разоружении. Но не всех в США устраивает такой ход событий. Высшие чины Пентагона готовят заговор против Президента Лимена с целью захвата власти. Об этом становится известно сторонникам президента, которые намечают контрмеры. Но спасти Лимена все же не удается...
    Возраст: этот продукт не был классифицирован
    Продолжительность: 03: 26: 24
    Качество видео: SATRip
    Видео: Xvid, 704x464, ~1825 Kbps
    Аудио: MP3, 2 ch, 128 Kbps

    Общее
    Полное имя : Z: Заговор (1971) SATRip.avi
    Формат : AVI
    Формат/Информация : Audio Video Interleave
    Профиль формата : OpenDML
    Размер файла : 2, 83 Гбайт
    Продолжительность : 3 ч. 26 м.
    Общий поток : 1964 Кбит/сек
    Программа кодирования : VirtualDubModRus 1.5.10.2 (build 2542/release)
    Библиотека кодирования : VirtualDubMod build 2542/release
    Видео
    Идентификатор : 0
    Формат : MPEG-4 Visual
    Профиль формата : Advanced Simple@L5
    Настройки формата : BVOP2
    Параметр BVOP формата : 2
    Параметр QPel формата : Нет
    Параметр GMC формата : Без точки перехода
    Параметр матрицы формата : Default (MPEG)
    Идентификатор кодека : XVID
    Идентификатор кодека/Подсказка : XviD
    Продолжительность : 3 ч. 26 м.
    Битрейт : 1825 Кбит/сек
    Ширина : 704 пикселя
    Высота : 464 пикселя
    Соотношение сторон : 3: 2
    Частота кадров : 25, 000 кадров/сек
    Цветовое пространство : YUV
    Субдискретизация насыщенности : 4: 2: 0
    Битовая глубина : 8 бит
    Тип развёртки : Прогрессивная
    Метод сжатия : С потерями
    Бит/(Пиксели*Кадры) : 0.224
    Размер потока : 2, 63 Гбайт (93%)
    Библиотека кодирования : XviD 73
    Аудио
    Идентификатор : 1
    Формат : MPEG Audio
    Версия формата : Version 1
    Профиль формата : Layer 3
    Настройки формата : Joint stereo/MS Stereo
    Идентификатор кодека : 55
    Идентификатор кодека/Подсказка : MP3
    Продолжительность : 3 ч. 26 м.
    Вид битрейта : Постоянный
    Битрейт : 128 Кбит/сек
    Каналы : 2 канала
    Частота : 48, 0 КГц
    Метод сжатия : С потерями
    Размер потока : 189 Мбайт (7%)
    Выравнивание : Разделение по промежуткам
    Продолжительность промежутка : 40 мс. (1, 00 видеокадр)
    Время предзагрузки промежутка : 500 мс.
    Библиотека кодирования : LAME3.98.2

    Скриншоты для ознакомления




    Все одноименные релизы в Клубе
    Время раздачи: С 18: 00 до 23: 00 (до появления первых 3-5 скачавших)


    Онлайн видео Заговор (1971) SATRip (3 серии из 3



    Заговор (1971) SATRip (3 серии из 3-х)
    Рейтинг →
     (голосов: 1, оценка 4/5, голосовать можно 1 раз )

    Другие торренты по теме:

  • Теория заговора. Заговор торговых сетей (2015.02.21) SATRip
  • Война без правил. Заговор корпораций (2015) SATRip скачать через торрент бесплатно
  • Теория заговора. Заговор против водителей (2015.09.20) SATRip скачать через торрент бесплатно
  • В теме. Антикитайский заговор (2015) SATRip скачать через торрент бесплатно
  • Секретные материалы 17. Заговор хищников (2016) SATRip
  • Вселенский заговор (2016) SATRip
  • Теория заговора. Заговор против микробов (2017.06.04) SATRip
  • Заговор генералов (2018) SATRip (серий 2 из 4) (Обновляемая)


    • Комментарии (0):

      Информация

      Информация

        Посетители, находящиеся в группе Гости, не могут оставлять комментарии в данной новости.

        ↓ Меню




        ↓ Опрос

        Вы добавили сайт в закладки?
        Да
        Нет


        Top 10 за месяц (Фильмы)