.
Авторизация | Регистрация
Хочешь лучшие торренты? Добавь свой email!
Добавить

Торрент скачать бесплатно

  • support: webmaster@btracker.org
» » Гурзуф (2018) WEBRip (серии 1-6 из 8) (обновляемая) торрент скачать бесплатно


    Гурзуф (2018) WEBRip (серии 1-6 из 8) (обновляемая) торрент скачать бесплатно

    Опубликовал: Админ | Дата: 31-05-2018, 05:00 | .torrent скачали: 0

    Гурзуф (2018) WEBRip (серии 1-6 из 8) (обновляемая)Производство: Россия/Epic Media
    Жанр: детектив, история
    Режиссер: Дмитрий Константинов

    Актеры
    Пётр Фёдоров, Евгений Антропов, Дарья Урсуляк, Павел Чинарёв, Мария Смольникова, Виталия Корниенко, Александр Бухаров, Тимур Бадалбейли, Константин Чепурин, Елена Нестерова и др.

    Описание

    Июнь 1965 года. Порой жёстко, в обход закона, порой договариваясь с преступниками, Родион Стоцкий за три года работы начальником милиции превратил Гурзуф в самое спокойное место Южного берега Крыма. Здесь даже пляжные мошенники предпочитают не работать. Но в начале нового курортного сезон любимого сериалаа за пару дней происходит сразу несколько преступлений: расстреливают блатных в такси; грабят грузовик, который везёт зарплату для работников Артека; совершают разбойное нападение на подпольное игорное заведение. Стоцкий понимает, что все эти преступления связаны, и он должен найти преступников в самые кратчайшие сроки. В расследовании ему помогает старый знакомый Тарас Зайцев, который перебрался с семьёй в Крым следом за Стоцким.

    Дата российской премьеры: 28 мая 2018
    Продолжительность: ~00: 50: 00 серия
    Качество видео: WEBRip
    Видео: Xvid, 720x400 (16: 9), ~1555 Kbps
    Аудио: AC3, 2 ch, 192 Kbps

    Общее
    Полное имя : D: Гурзуф (2018)Серия 1.by.Алехаndr.avi
    Формат : AVI
    Формат/Информация : Audio Video Interleave
    Размер файла : 602 Мбайт
    Продолжительность : 47 м. 49 с.
    Общий поток : 1759 Кбит/сек
    Программа кодирования : Lavf57.41.100
    Видео
    Идентификатор : 0
    Формат : xvid
    Идентификатор кодека : xvid
    Продолжительность : 47 м. 48 с.
    Битрейт : 1556 Кбит/сек
    Ширина : 720 пикселей
    Высота : 400 пикселей
    Соотношение сторон : 16: 9
    Частота кадров : 25, 000 кадров/сек
    Тип развёртки : Прогрессивная
    Бит/(Пиксели*Кадры) : 0.216
    Размер потока : 532 Мбайт (88%)
    Аудио
    Идентификатор : 1
    Формат : AC-3
    Формат/Информация : Audio Coding 3
    Идентификатор кодека : 2000
    Продолжительность : 47 м. 49 с.
    Вид битрейта : Постоянный
    Битрейт : 192 Кбит/сек
    Каналы : 2 канала
    Расположение каналов : Front: L R
    Частота : 48, 0 КГц
    Частота кадров : 31, 250 кадров/сек (1536 SPF)
    Битовая глубина : 16 бит
    Метод сжатия : С потерями
    Размер потока : 65, 7 Мбайт (11%)
    Выравнивание : Соединение по промежуткам
    Продолжительность промежутка : 32 мс. (0, 80 видеокадр)
    ServiceKind/String : Complete Main


    Онлайн видео Гурзуф (2018) WEBRip (серии 1



    Гурзуф (2018) WEBRip (серии 1-6 из 8) (обновляемая)
    Рейтинг →
     (голосов: 1, оценка 4/5, голосовать можно 1 раз )

    Другие торренты по теме:

  • Гурзуф (2018) WEB-DL [H.264 / 1080p-LQ] (серии 1-2 из 8) (обновляемая)
  • Гурзуф (2018) HDTVRip [H.264] (серии 1-8 из 8)


    • Комментарии (0):

      Информация

      Информация

        Посетители, находящиеся в группе Гости, не могут оставлять комментарии в данной новости.

        ↓ Меню




        ↓ Опрос

        Вы добавили сайт в закладки?
        Да
        Нет


        Top 10 за месяц (Фильмы)