.
Авторизация | Регистрация
Хочешь лучшие торренты? Добавь свой email!
Добавить

Торрент скачать бесплатно

  • support: webmaster@btracker.org
» » Босиком по парку / Barefoot in the Park (1967) WEB-DLRip [H.264] торрент скачать бесплатно


    Босиком по парку / Barefoot in the Park (1967) WEB-DLRip [H.264] торрент скачать бесплатно

    Опубликовал: Админ | Дата: 31-05-2018, 05:00 | .torrent скачали: 2

    Босиком по парку / Barefoot in the Park (1967) WEB-DLRip [H.264]Производство: США/Nancy Enterprises Inc. (I), Wallis-Hazen
    Жанр: Мелодрама, Комедия
    Режиссер: Джин Сэкс
    Продюсер: Хэл Б. Уоллис, Пол Нэйтан, Джозеф Х. Хазен

    Актеры
    Роберт Редфорд, Джейн Фонда, Шарль Буайе, Милдред Нэтвик, Херб Эдельман, Мэйбл Альбертсон, Фриц Фельд, Джеймс Стоун, Тед Хартли, Билли Бёрд

    Описание

    Пол и Кори Брэттер живут в маленькой квартирке на пятом этаже в районе Гринвич Виллидж. Она считает, что у них милый домик, а он, консервативный юрист, ненавидит свое жилье.
    Буайе, образец француза и ловеласа в глазах американцев, играет слегка чокнутого бабника, живущего этажом выше, которому приходится проходить через их квартиру, чтобы попасть в свою. Романтичной Кори нравится старый казанова, и она устраивает ему знакомство со своей мамашей.
    Возникает много комичных и трогательных осложнений. Пол, например, отказывает предложению супруги пойти гулять босиком в Центральный парк, когда на улице всего 17 градусов и идет дождь. Но любовь, конечно, побеждает все…

    Возраст: 12+ (зрителям, достигшим 12 лет)
    Рейтинг MPAA: G (нет возрастных ограничений)
    Релиз от: Охрана (NNMCLUB)
    Продолжительность: 01: 46: 00
    Качество видео: WEB-DLRip
    Перевод: Многоголосый закадровый, двухголосый закадровый
    Субтитры: Русские(SomeWax), английские (Full, SDH)
    Видео: AVC/H.264, 1024x576, ~2750 Kbps
    Аудио 1: Русский, AC3, 2 ch, 192 Kbps, 48.0 kHz (DVO, НТВ+)
    Аудио 2: Русский, AC3, 2 ch, 192 Kbps, 48.0 kHz (MVO, Paramount Channel)
    Аудио 3: Русский, AC3, 2 ch, 192 Kbps, 48.0 kHz (MVO, DVD Магия)
    Аудио 4: Русский, AC3, 2 ch, 192 Kbps, 48.0 kHz (MVO, SomeWax)
    Аудио 5: Английский, AC3, 2 ch, 192 Kbps, 48.0 kHz (Оригинал)

    Общее
    Уникальный идентификатор : 189906856185040741206704499050747161699 (0x8EDEBAE7A519BB908D76BD1457FA6C63)
    Полное имя : F: DownloadsБосиком по парку. 1967. NNMCLUB.mkv
    Формат : Matroska
    Версия формата : Version 4/Version 2
    Размер файла : 2, 75 Гбайт
    Продолжительность : 1 ч. 46 м.
    Общий поток : 3713 Кбит/сек
    Дата кодирования : UTC 2018-05-29 10: 44: 15
    Программа кодирования : mkvmerge v7.9.0 (\'Birds\') 64bit
    Библиотека кодирования : libebml v1.3.1 + libmatroska v1.4.2
    Видео
    Идентификатор : 1
    Формат : AVC
    Формат/Информация : Advanced Video Codec
    Профиль формата : High@L4.1
    Настройки формата : CABAC/10 Ref Frames
    Параметр CABAC формата : Да
    Параметр RefFrames формата : 10 кадров
    Идентификатор кодека : V_MPEG4/ISO/AVC
    Продолжительность : 1 ч. 46 м.
    Битрейт : 2750 Кбит/сек
    Ширина : 1024 пикселя
    Высота : 576 пикселей
    Соотношение сторон : 16: 9
    Режим частоты кадров : Постоянный
    Частота кадров : 23, 976 (24000/1001) кадра/сек
    Цветовое пространство : YUV
    Субдискретизация насыщенности : 4: 2: 0
    Битовая глубина : 8 бит
    Тип развёртки : Прогрессивная
    Бит/(Пиксели*Кадры) : 0.194
    Размер потока : 2, 04 Гбайт (74%)
    Заголовок : Barefoot in the Park
    Библиотека кодирования : x264 core 146 r2538 121396c
    Настройки программы : cabac=1/ref=10/deblock=1: -1: -1/analyse=0x3: 0x113/me=umh/subme=10/psy=1/psy_rd=1.00: 0.10/mixed_ref=1/me_range=32/chroma_me=1/trellis=2/8x8dct=1/cqm=0/deadzone=21, 11/fast_pskip=0/chroma_qp_offset=-3/threads=6/lookahead_threads=1/sliced_threads=0/nr=0/decimate=0/interlaced=0/bluray_compat=0/constrained_intra=0/bframes=7/b_pyramid=2/b_adapt=2/b_bias=0/direct=3/weightb=1/open_gop=0/weightp=2/keyint=250/keyint_min=25/scenecut=40/intra_refresh=0/rc_lookahead=60/rc=2pass/mbtree=1/bitrate=2750/ratetol=1.0/qcomp=0.60/qpmin=0/qpmax=69/qpstep=4/cplxblur=20.0/qblur=0.5/vbv_maxrate=14000/vbv_bufsize=14000/nal_hrd=none/filler=0/ip_ratio=1.40/aq=1: 1.00
    Язык : English
    Default : Да
    Forced : Нет
    Аудио #1
    Идентификатор : 2
    Формат : AC-3
    Формат/Информация : Audio Coding 3
    Идентификатор кодека : A_AC3
    Продолжительность : 1 ч. 45 м.
    Вид битрейта : Постоянный
    Битрейт : 192 Кбит/сек
    Каналы : 2 канала
    Расположение каналов : Front: L R
    Частота : 48, 0 КГц
    Частота кадров : 31, 250 кадров/сек (1536 SPF)
    Битовая глубина : 16 бит
    Метод сжатия : С потерями
    Размер потока : 146 Мбайт (5%)
    Заголовок : Двухголосый закадровый, НТВ+
    Язык : Russian
    ServiceKind/String : Complete Main
    Default : Да
    Forced : Нет
    Аудио #2
    Идентификатор : 3
    Формат : AC-3
    Формат/Информация : Audio Coding 3
    Идентификатор кодека : A_AC3
    Продолжительность : 1 ч. 46 м.
    Вид битрейта : Постоянный
    Битрейт : 192 Кбит/сек
    Каналы : 2 канала
    Расположение каналов : Front: L R
    Частота : 48, 0 КГц
    Частота кадров : 31, 250 кадров/сек (1536 SPF)
    Битовая глубина : 16 бит
    Метод сжатия : С потерями
    Размер потока : 146 Мбайт (5%)
    Заголовок : Многоголосый закадровый, Paramount Channel
    Язык : Russian
    ServiceKind/String : Complete Main
    Default : Нет
    Forced : Нет
    Аудио #3
    Идентификатор : 4
    Формат : AC-3
    Формат/Информация : Audio Coding 3
    Идентификатор кодека : A_AC3
    Продолжительность : 1 ч. 45 м.
    Вид битрейта : Постоянный
    Битрейт : 192 Кбит/сек
    Каналы : 2 канала
    Расположение каналов : Front: L R
    Частота : 48, 0 КГц
    Частота кадров : 31, 250 кадров/сек (1536 SPF)
    Битовая глубина : 16 бит
    Метод сжатия : С потерями
    Размер потока : 146 Мбайт (5%)
    Заголовок : Многоголосый закадровый, DVD Магия
    Язык : Russian
    ServiceKind/String : Complete Main
    Default : Нет
    Forced : Нет
    Аудио #4
    Идентификатор : 5
    Формат : AC-3
    Формат/Информация : Audio Coding 3
    Идентификатор кодека : A_AC3
    Продолжительность : 1 ч. 45 м.
    Вид битрейта : Постоянный
    Битрейт : 192 Кбит/сек
    Каналы : 2 канала
    Расположение каналов : Front: L R
    Частота : 48, 0 КГц
    Частота кадров : 31, 250 кадров/сек (1536 SPF)
    Битовая глубина : 16 бит
    Метод сжатия : С потерями
    Размер потока : 146 Мбайт (5%)
    Заголовок : Многоголосый закадровый, SomeWax
    Язык : Russian
    ServiceKind/String : Complete Main
    Default : Нет
    Forced : Нет
    Аудио #5
    Идентификатор : 6
    Формат : AC-3
    Формат/Информация : Audio Coding 3
    Идентификатор кодека : A_AC3
    Продолжительность : 1 ч. 46 м.
    Вид битрейта : Постоянный
    Битрейт : 192 Кбит/сек
    Каналы : 2 канала
    Расположение каналов : Front: L R
    Частота : 48, 0 КГц
    Частота кадров : 31, 250 кадров/сек (1536 SPF)
    Битовая глубина : 16 бит
    Метод сжатия : С потерями
    Размер потока : 146 Мбайт (5%)
    Заголовок : Оригинал
    Язык : English
    ServiceKind/String : Complete Main
    Default : Нет
    Forced : Нет
    Текст #1
    Идентификатор : 7
    Формат : UTF-8
    Идентификатор кодека : S_TEXT/UTF8
    Идентификатор кодека/Информация : UTF-8 Plain Text
    Продолжительность : 1 ч. 43 м.
    Битрейт : 91 бит/сек
    ElementCount : 1384
    Размер потока : 69, 5 Кбайт (0%)
    Заголовок : SomeWax
    Язык : Russian
    Default : Нет
    Forced : Нет
    Текст #2
    Идентификатор : 8
    Формат : UTF-8
    Идентификатор кодека : S_TEXT/UTF8
    Идентификатор кодека/Информация : UTF-8 Plain Text
    Продолжительность : 1 ч. 45 м.
    Битрейт : 78 бит/сек
    ElementCount : 1921
    Размер потока : 60, 5 Кбайт (0%)
    Заголовок : Full
    Язык : English
    Default : Нет
    Forced : Нет
    Текст #3
    Идентификатор : 9
    Формат : UTF-8
    Идентификатор кодека : S_TEXT/UTF8
    Идентификатор кодека/Информация : UTF-8 Plain Text
    Продолжительность : 1 ч. 45 м.
    Битрейт : 81 бит/сек
    ElementCount : 2021
    Размер потока : 62, 9 Кбайт (0%)
    Заголовок : SDH
    Язык : English
    Default : Нет
    Forced : Нет

    Скриншоты для ознакомления




    Все одноименные релизы в Клубе
    Время раздачи: с 13: 00 до 01: 00 МСК, выходные круглосуточно (до появления первых 3-5 скачавших)


    Онлайн видео Босиком по парку



    Босиком по парку/Barefoot in the Park (1967) WEB-DLRip [H.264]
    Рейтинг →
     (голосов: 1, оценка 4/5, голосовать можно 1 раз )

    Другие торренты по теме:

  • Босиком по парку / Barefoot in the Park (1967) HDTVRip [H.264 / 720p-LQ]


    • Комментарии (0):

      Информация

      Информация

        Посетители, находящиеся в группе Гости, не могут оставлять комментарии в данной новости.

        ↓ Меню




        ↓ Опрос

        Вы добавили сайт в закладки?
        Да
        Нет


        Top 10 за месяц (Фильмы)